Поиск

(Ethno Jazz) John Handy & Ali Akbar Khan - Two Originals : Katurna Supreme & Rainbow - 1994, FLAC (image+.cue), lossless

(Ethno Jazz) John Handy & Ali Akbar Khan - Two Originals : Katurna Supreme & Rainbow - 1994, FLAC (image+.cue), lossless
Треклист:
John Handy & Ali Akbar Khan / Two Originals : Katurna Supreme & Rainbow
Жанр: Ethno Jazz
Страна-производитель диска: Germany
Год издания: 1994
Издатель (лейбл): MPS Records
Номер по каталогу: 519195-2
Страна: USA
Аудиокодек: FLAC (*.flac)
Тип рипа: image+.cue
Битрейт аудио: lossless
Продолжительность: 41:10, 46:54
Источник (релизер): CD из личной коллекции
Наличие сканов в содержимом раздачи: да
Треклист:
CD 1
01.Ganesha`s Jubilee Dance
02.Karuna Supreme
03.The Soul And The Atma
CD 2
01.Rajashik - The Majesty Of Wisdom
02.Indian Boogie Shoes
03.Rainbow Serenade
04.Garland Of Flowers
05.Kali Dance
 
Лог создания рипа
Exact Audio Copy V1.0 beta 3 from 29. August 2011
EAC extraction logfile from 6. June 2013, 8:07
John Handy & Ali Akbar Khan / Two Originals CD1: Karuna Supreme
Used drive : Optiarc BDRW BD-M100A Adapter: 0 ID: 0
Read mode : Secure
Utilize accurate stream : Yes
Defeat audio cache : Yes
Make use of C2 pointers : No
Read offset correction : 102
Overread into Lead-In and Lead-Out : No
Fill up missing offset samples with silence : Yes
Delete leading and trailing silent blocks : No
Null samples used in CRC calculations : Yes
Used interface : Native Win32 interface for Win NT & 2000
Used output format : User Defined Encoder
Selected bitrate : 128 kBit/s
Quality : High
Add ID3 tag : No
Command line compressor : C:\Program Files (x86)\Exact Audio Copy\Flac\flac.exe
Additional command line options : -V -8 -T "Date=%year%" -T "Genre=%genre%" %source%
TOC of the extracted CD
Track | Start | Length | Start sector | End sector
---------------------------------------------------------
1 | 0:00.33 | 9:19.12 | 33 | 41969
2 | 9:19.45 | 11:06.23 | 41970 | 91942
3 | 20:25.68 | 20:44.27 | 91943 | 185269
Range status and errors
Selected range
Filename C:\Users\User\Desktop\Rutracker\John Handy & Ali Akbar Khan\CD 1\John Handy & Ali Akbar Khan - Two Originals CD1- Karuna Supreme.wav
Peak level 99.9 %
Extraction speed 4.8 X
Range quality 100.0 %
Test CRC 9FEA5FF1
Copy CRC 9FEA5FF1
Copy OK
No errors occurred
End of status report
==== Log checksum 5587AF846619C0A79C6DD88B25A4612D54521B5A763FEC857EBA7B73B51A9CBE ====
Exact Audio Copy V1.0 beta 3 from 29. August 2011
EAC extraction logfile from 6. June 2013, 9:12
John Handy & Ali Akbar Khan / Rainbow
Used drive : Optiarc BDRW BD-M100A Adapter: 0 ID: 0
Read mode : Secure
Utilize accurate stream : Yes
Defeat audio cache : Yes
Make use of C2 pointers : No
Read offset correction : 102
Overread into Lead-In and Lead-Out : No
Fill up missing offset samples with silence : Yes
Delete leading and trailing silent blocks : No
Null samples used in CRC calculations : Yes
Used interface : Native Win32 interface for Win NT & 2000
Used output format : User Defined Encoder
Selected bitrate : 128 kBit/s
Quality : High
Add ID3 tag : No
Command line compressor : C:\Program Files (x86)\Exact Audio Copy\Flac\flac.exe
Additional command line options : -V -8 -T "Date=%year%" -T "Genre=%genre%" %source%
TOC of the extracted CD
Track | Start | Length | Start sector | End sector
---------------------------------------------------------
1 | 0:00.33 | 8:15.60 | 33 | 37217
2 | 8:16.18 | 9:02.60 | 37218 | 77927
3 | 17:19.03 | 6:34.25 | 77928 | 107502
4 | 23:53.28 | 9:56.55 | 107503 | 152257
5 | 33:50.08 | 13:04.17 | 152258 | 211074
Range status and errors
Selected range
Filename C:\Users\User\Desktop\Rutracker\John Handy & Ali Akbar Khan\CD 2\John Handy & Ali Akbar Khan - Rainbow.wav
Peak level 99.9 %
Extraction speed 5.0 X
Range quality 100.0 %
Test CRC 8F29F218
Copy CRC 8F29F218
Copy OK
No errors occurred
End of status report
==== Log checksum 028F0A6F7478DFC9410577BF5DA2DD8AFDA24562E7C8035E7C874D15B6C8E926 ====
 
Содержание индексной карты (.CUE)
REM GENRE Ethnic
REM DATE 1994
REM DISCID 1A09A603
REM COMMENT "ExactAudioCopy v1.0b3"
PERFORMER "John Handy & Ali Akbar Khan"
TITLE "Two Originals CD1: Karuna Supreme"
FILE "John Handy & Ali Akbar Khan - Two Originals CD1- Karuna Supreme.flac" WAVE
TRACK 01 AUDIO
TITLE "Ganesha's Jubilee Dance"
PERFORMER "John Handy & Ali Akbar Khan"
INDEX 00 00:00:00
INDEX 01 00:00:33
TRACK 02 AUDIO
TITLE "Karuna Supreme"
PERFORMER "John Handy & Ali Akbar Khan"
INDEX 00 09:14:45
INDEX 01 09:19:45
TRACK 03 AUDIO
TITLE "The Soul and the Atma"
PERFORMER "John Handy & Ali Akbar Khan"
INDEX 00 20:21:18
INDEX 01 20:25:68
REM GENRE Ethnic
REM DATE 1994
REM DISCID 310AFE05
REM COMMENT "ExactAudioCopy v1.0b3"
PERFORMER "John Handy & Ali Akbar Khan"
TITLE "Rainbow"
FILE "John Handy & Ali Akbar Khan - Rainbow.flac" WAVE
TRACK 01 AUDIO
TITLE "Rajashik - The Majesty Of Wisdom"
PERFORMER "John Handy & Ali Akbar Khan"
INDEX 00 00:00:00
INDEX 01 00:00:33
TRACK 02 AUDIO
TITLE "Indian Boogie Shoes"
PERFORMER "John Handy & Ali Akbar Khan"
INDEX 00 08:11:43
INDEX 01 08:16:18
TRACK 03 AUDIO
TITLE "Rainbow Serenade"
PERFORMER "John Handy & Ali Akbar Khan"
INDEX 00 17:14:28
INDEX 01 17:19:03
TRACK 04 AUDIO
TITLE "Garland Of Flowers"
PERFORMER "John Handy & Ali Akbar Khan"
INDEX 00 23:48:53
INDEX 01 23:53:28
TRACK 05 AUDIO
TITLE "Kali Dance"
PERFORMER "John Handy & Ali Akbar Khan"
INDEX 00 33:45:33
INDEX 01 33:50:08
Доп. информация: На данном издании объединены два альбома 1976 и 1981 гг.
 
Состав
Alto Saxophone – John Handy
Design [Cover Design] – Rolf Becker
Engineer – Carlos Albrecht, Kurt Rapp
Photography – Evelin Bachmann, Ulrich Borchert
Producer – Joachim-Ernst Berendt*
Sarod – Ali Akbar Khan
Tabla – Zakir Hussain
Tambura – Yogish S. Sahota
По всем вопросам пишите личное сообщение пользователю M0p94ok.
07:50
390
Нет комментариев. Ваш будет первым!