Поиск

(Ethnic|World|Soul|Jazz) Oum - Soul of Morocco - 2013, FLAC (tracks+.cue), lossless

(Ethnic|World|Soul|Jazz) Oum - Soul of Morocco - 2013, FLAC (tracks+.cue), lossless
Треклист:
Oum - Soul of Morocco

Жанр: Ethnic | World | Soul | Jazz
Страна-производитель диска: France
Год издания: 23.04.2013
Издатель (лейбл): LOF Music
Номер по каталогу: MDC011
Страна: Morocco
Аудиокодек: FLAC (*.flac)
Тип рипа: tracks+.cue
Битрейт аудио: lossless
Продолжительность: 57:18
Источник (релизер): laotseu
Наличие сканов в содержимом раздачи: да
Треклист:
1. Whowa
2. Shine
3. Salam
4. Lik
5. Haylala
6. Mnama
7. Taragalte
8. Menn iLik
9. Aji
Доп. информация:
"Душа Морокко" последний и третий (и первый международный) альбом марокканской сахарской певицы Ум с завораживающим голосом. Альбом включает в себя различные музыкальные стили, в том числе поэзию/язык Hassany, африканские ритмы, джаз, соул, берберскую и суфийскую музыку. Выпущено Lof Music и записано на знаменитой парижской студии Davout.
Ум, родилась в Касабланке, экономической столице Марокко, и выросла в городе Марракеш. Ум представляет эклектику женского вокала, исполняя soul, музыку души, смешанную с ее природным влиянием, окружением, такими как поэзия Hassany (культура марокканской пустыни) и африканские ритмы, уходя корнями в соул, госпел и джаз.
Её вдохновителями были и есть Malouma Mint El Maidah, Ella Fitzgerald, Miriam Makeba, Billie Holliday, Dimi Mint Abba, Aretha Franklin и Eryka Badu.
В том числе, Ум является организатором и крестной мамой фестиваля в Taragalte "Женщины пустыни" - для музыкантов и женщин Мали.
Официальный сайт Ум
Видео "Soul Of Morocco"
Лог создания рипа
Exact Audio Copy V1.0 beta 2 from 29. April 2011
EAC extraction logfile from 16. April 2013, 20:47
Oum / Soul of Morocco
Used drive : TSSTcorpDVD-ROM SH-D162C Adapter: 0 ID: 1
Read mode : Secure
Utilize accurate stream : Yes
Defeat audio cache : Yes
Make use of C2 pointers : No
Read offset correction : 6
Overread into Lead-In and Lead-Out : No
Fill up missing offset samples with silence : Yes
Delete leading and trailing silent blocks : No
Null samples used in CRC calculations : Yes
Used interface : Installed external ASPI interface
Gap handling : Appended to previous track
Used output format : User Defined Encoder
Selected bitrate : 256 kBit/s
Quality : High
Add ID3 tag : No
Command line compressor : C:\Program Files\Exact Audio Copy\Flac\flac.exe
Additional command line options : -8 -V -T "ARTIST=%artist%" -T "TITLE=%title%" -T "ALBUM=%albumtitle%" -T "DATE=%year%" -T "TRACKNUMBER=%tracknr%" -T "TOTALTRACKS=%numtracks%" -T "GENRE=%genre%" -T "ALBUMARTIST=%albumartist%" -T "ALBUM ARTIST=%albumartist%
TOC of the extracted CD
Track | Start | Length | Start sector | End sector
---------------------------------------------------------
1 | 0:00.00 | 4:33.03 | 0 | 20477
2 | 4:33.03 | 4:55.01 | 20478 | 42603
3 | 9:28.04 | 5:21.40 | 42604 | 66718
4 | 14:49.44 | 4:11.69 | 66719 | 85612
5 | 19:01.38 | 6:43.64 | 85613 | 115901
6 | 25:45.27 | 5:15.10 | 115902 | 139536
7 | 31:00.37 | 7:12.05 | 139537 | 171941
8 | 38:12.42 | 11:18.26 | 171942 | 222817
9 | 49:30.68 | 7:47.24 | 222818 | 257866
Track 1
Filename D:\Musique\Oum - Soul of Morocco (2013) [FLAC]\01 - Whowa.wav
Pre-gap length 0:00:02.00
Peak level 98.8 %
Extraction speed 3.5 X
Track quality 100.0 %
Test CRC 1DAE3CAF
Copy CRC 1DAE3CAF
Track not present in AccurateRip database
Copy OK
Track 2
Filename D:\Musique\Oum - Soul of Morocco (2013) [FLAC]\02 - Shine.wav
Pre-gap length 0:00:02.00
Peak level 97.7 %
Extraction speed 4.0 X
Track quality 100.0 %
Test CRC 710C7123
Copy CRC 710C7123
Track not present in AccurateRip database
Copy OK
Track 3
Filename D:\Musique\Oum - Soul of Morocco (2013) [FLAC]\03 - Salam.wav
Pre-gap length 0:00:03.00
Peak level 95.5 %
Extraction speed 4.5 X
Track quality 100.0 %
Test CRC 4E559C48
Copy CRC 4E559C48
Track not present in AccurateRip database
Copy OK
Track 4
Filename D:\Musique\Oum - Soul of Morocco (2013) [FLAC]\04 - Lik.wav
Pre-gap length 0:00:02.00
Peak level 97.7 %
Extraction speed 4.7 X
Track quality 100.0 %
Test CRC E8E65729
Copy CRC E8E65729
Track not present in AccurateRip database
Copy OK
Track 5
Filename D:\Musique\Oum - Soul of Morocco (2013) [FLAC]\05 - Haylala.wav
Pre-gap length 0:00:02.00
Peak level 97.7 %
Extraction speed 5.4 X
Track quality 100.0 %
Test CRC 21754330
Copy CRC 21754330
Track not present in AccurateRip database
Copy OK
Track 6
Filename D:\Musique\Oum - Soul of Morocco (2013) [FLAC]\06 - Mnama.wav
Pre-gap length 0:00:02.00
Peak level 98.8 %
Extraction speed 5.7 X
Track quality 100.0 %
Test CRC B4E6D11B
Copy CRC B4E6D11B
Track not present in AccurateRip database
Copy OK
Track 7
Filename D:\Musique\Oum - Soul of Morocco (2013) [FLAC]\07 - Taragalte.wav
Pre-gap length 0:00:02.00
Peak level 97.7 %
Extraction speed 6.2 X
Track quality 100.0 %
Test CRC EE8D52E5
Copy CRC EE8D52E5
Track not present in AccurateRip database
Copy OK
Track 8
Filename D:\Musique\Oum - Soul of Morocco (2013) [FLAC]\08 - Menni Lik.wav
Pre-gap length 0:00:03.00
Peak level 98.8 %
Extraction speed 6.9 X
Track quality 100.0 %
Test CRC EEB4CCAC
Copy CRC EEB4CCAC
Track not present in AccurateRip database
Copy OK
Track 9
Filename D:\Musique\Oum - Soul of Morocco (2013) [FLAC]\09 - Aji.wav
Pre-gap length 0:00:02.00
Peak level 97.7 %
Extraction speed 7.1 X
Track quality 100.0 %
Test CRC AD5769C9
Copy CRC AD5769C9
Track not present in AccurateRip database
Copy OK
None of the tracks are present in the AccurateRip database
No errors occurred
End of status report
==== Log checksum C2E8C665A9E64AECB1FA8A8004664B9C3E38DD253CB88A9AC13EC1943CE07DFD ====
 
Содержание индексной карты (.CUE)
REM GENRE Soul
REM DATE 2013
REM DISCID 7E0D6E09
REM COMMENT "ExactAudioCopy v1.0b2"
PERFORMER "Oum"
TITLE "Soul of Morocco"
FILE "01 - Whowa.wav" WAVE
TRACK 01 AUDIO
TITLE "Whowa"
PERFORMER "Oum"
INDEX 01 00:00:00
TRACK 02 AUDIO
TITLE "Shine"
PERFORMER "Oum"
INDEX 00 04:31:03
FILE "02 - Shine.wav" WAVE
INDEX 01 00:00:00
TRACK 03 AUDIO
TITLE "Salam"
PERFORMER "Oum"
INDEX 00 04:52:01
FILE "03 - Salam.wav" WAVE
INDEX 01 00:00:00
TRACK 04 AUDIO
TITLE "Lik"
PERFORMER "Oum"
INDEX 00 05:19:40
FILE "04 - Lik.wav" WAVE
INDEX 01 00:00:00
TRACK 05 AUDIO
TITLE "Haylala"
PERFORMER "Oum"
INDEX 00 04:09:69
FILE "05 - Haylala.wav" WAVE
INDEX 01 00:00:00
TRACK 06 AUDIO
TITLE "Mnama"
PERFORMER "Oum"
INDEX 00 06:41:64
FILE "06 - Mnama.wav" WAVE
INDEX 01 00:00:00
TRACK 07 AUDIO
TITLE "Taragalte"
PERFORMER "Oum"
INDEX 00 05:13:10
FILE "07 - Taragalte.wav" WAVE
INDEX 01 00:00:00
TRACK 08 AUDIO
TITLE "Menni Lik"
PERFORMER "Oum"
INDEX 00 07:09:05
FILE "08 - Menni Lik.wav" WAVE
INDEX 01 00:00:00
TRACK 09 AUDIO
TITLE "Aji"
PERFORMER "Oum"
INDEX 00 11:16:26
FILE "09 - Aji.wav" WAVE
INDEX 01 00:00:00
Не забываем нажать - сказать "Спасибо"
10:29
569
Нет комментариев. Ваш будет первым!