Поиск

(Ethnic jazz/ worldmusic/ a capella) Zap Mama "A Ma Zone" - 1999, APE (image + .cue), lossless

Треклист:
Zap Mama "A Ma Zone"
Страна: Belgium
Жанр: ethno jazz/ worldmusic/ a capella
Год выпуска: 1999
Формат: APE (image + .cue)
Битрейт аудио: lossless
Продолжительность: 54 min
Трэклист:
1. Iko-Iko
2. Rofiki
3. W'happy Mama
4. Call Waiting
5. Gisse
6. Songe
7. Kemoke
8. Comment Co Vo
9. Ya Solo
10. My Own Zero
11. M'oto
12. Gbo Mata (Station)
13. 'Allo 'Allo
14. Rofiki (Original Mix)
 
Отчёт EAC
Exact Audio Copy V0.99 prebeta 3 from 28. July 2007
Отчёт EAC об извлечении, выполненном 21. декабря 2007, 17:58
Zap Mama / A Ma Zone
Дисковод: _NEC DV-5800E Adapter: 3 ID: 0
Режим чтения : Достоверность
Использование точного потока : Да
Отключение кэша аудио : Да
Использование указателей C2 : Нет
Коррекция смещения при чтении : 6
Способность читать области Lead-in и Lead-out : Нет
Заполнение пропущенных сэмплов тишиной : Да
Удаление блоков с тишиной в начале и конце : Нет
При вычислениях CRC использовались нулевые сэмплы : Нет
Интерфейс : Встроенный Win32-интерфейс для Win NT/2000
Выходной формат : Внутренние WAV-операции
Формат сэмплов : 44.100 Гц; 16 бит; стерео
TOC извлечённого CD
Трек | Старт | Длительность | Начальный сектор | Конечный сектор
---------------------------------------------------------------------
1 | 0:00.00 | 3:22.66 | 0 | 15215
2 | 3:22.66 | 3:43.03 | 15216 | 31943
3 | 7:05.69 | 5:16.56 | 31944 | 55699
4 | 12:22.50 | 3:55.16 | 55700 | 73340
5 | 16:17.66 | 3:43.21 | 73341 | 90086
6 | 20:01.12 | 3:30.26 | 90087 | 105862
7 | 23:31.38 | 3:07.21 | 105863 | 119908
8 | 26:38.59 | 4:28.51 | 119909 | 140059
9 | 31:07.35 | 4:09.66 | 140060 | 158800
10 | 35:17.26 | 4:02.71 | 158801 | 177021
11 | 39:20.22 | 2:47.71 | 177022 | 189617
12 | 42:08.18 | 3:24.41 | 189618 | 204958
13 | 45:32.59 | 5:08.61 | 204959 | 228119
14 | 50:41.45 | 4:04.16 | 228120 | 246435
Характеристики диапазона извлечения и сообщения об ошибках
Выбранный диапазон
Имя файла F:\WD_MUSIC\Zap Mama - A Ma Zone\Zap Mama - A Ma Zone.wav
Пиковый уровень 99.8 %
Качество диапазона 100.0 %
CRC теста 605802D3
CRC копии 605802D3
Копирование... OK
Ошибок не произошло
AccurateRip: сводка
Трек 1 точное извлечение (доверие 1) [F46D5C38]
Трек 2 точное извлечение (доверие 1) [FA49677C]
Трек 3 точное извлечение (доверие 1) [7F794713]
Трек 4 точное извлечение (доверие 1) [18BC7EBB]
Трек 5 точное извлечение (доверие 1) [8EC26806]
Трек 6 точное извлечение (доверие 1) [98CE8D71]
Трек 7 точное извлечение (доверие 1) [0114AE92]
Трек 8 точное извлечение (доверие 1) [422AB35D]
Трек 9 точное извлечение (доверие 1) [4EA652AA]
Трек 10 точное извлечение (доверие 1) [E3FC75C3]
Трек 11 точное извлечение (доверие 1) [B71C3ABE]
Трек 12 точное извлечение (доверие 1) [B639F04D]
Трек 13 точное извлечение (доверие 1) [D2C90C9C]
Трек 14 точное извлечение (доверие 1) [5087E35D]
Все треки извлечены точно
Конец отчёта
00:01
357
Нет комментариев. Ваш будет первым!