Поиск

(Ethnic Jazz, World Music) [CD] Don Cherry - Eternal Now & Brown Rice - 1974, 1975, FLAC (tracks+.cue), lossless

(Ethnic Jazz, World Music) [CD] Don Cherry - Eternal Now & Brown Rice - 1974, 1975, FLAC (tracks+.cue), lossless
Треклист:
Don Cherry / Eternal Now & Brown Rice
Жанр: Ethnic Jazz, World Music
Носитель: CD
Год издания: 1974, 1975
Страна исполнителя (группы): США
Аудиокодек: FLAC (*.flac)
Тип рипа: tracks+.cue
Битрейт аудио: lossless
Продолжительность: 00:37:40 + 00:39:17
Источник (релизер): inconstantsol.blogspot.com
Наличие сканов в содержимом раздачи: да
Треклист:
Eternal Now
1. Gamla Stan - The Old Town by Night
2. Love Train - 7:50
3. Bass Figure for Ballatune (Chris Bothen)
4. Moving Pictures for the Ear (Bothen, Cherry)
5. Tibet
Brown Rice
1. Brown Rice
2. Malkauns (Bengt Berger, Don Cherry)
3. Chenrezig
4. Degi-Degi
 
Лог создания рипа
Exact Audio Copy V0.99 prebeta 5 from 4. May 2009
Zбznam extrakce EAC z 25. Duben 2013, 14:08
Don Cherry / Eternal Now
Pouћitб mechanika : Optiarc DVD RW AD-7260S Adapter: 3 ID: 0
Reћim иtenн : Bezpeиnэ
Pouћнt accurate stream : Ano
Obejнt zvukovou vyr. pamмќ : Ne
Pouћнt C2 ukazatele : Ne
Kombinovanб korekce vychэlenн иtмnн/zбpisu: : 0
Инst lead-in a lead-out : Ne
Nahradit chybмjнcн vzorky tichem : Ne
Smazat ticho na zaибtku a na konci stop : Ne
Pшi vэpoиtu CRC pouћity nulovй vzorky : Ne
Pouћitй rozhranн : Integrovanй Win32 rozhranн pro NT/2k/XP
Naklбdбnн s mezerami : Nedetekovбny - pшidбny k pшedchozн stopм
Pouћitэ vэstupnн formбt : Uћivatelsky definovanэ encoder
Zvolenэ bitrate : 768 kBit/s
Kvalita : Vysokб
Pшidat ID3 tag : Ne
Komprimaиnн program pro pшнkazovэ шбdek : C:\Program Files\Exact Audio Copy\FLAC\FLAC.EXE
Dodateиnй parametry : -6 -V -T "ARTIST=%a" -T "TITLE=%t" -T "ALBUM=%g" -T "DATE=%y" -T "TRACKNUMBER=%n" -T "GENRE=%m" -T "COMMENT=%e" %s -o %d
TOC extrahovanйho CD
Stopa | Poибtek | Dйlka | Poибteиnн sektor | Koncovэ sektor
-----------------------------------------------------------------
1 | 0:00.01 | 8:31.54 | 1 | 38379
2 | 8:31.55 | 7:53.00 | 38380 | 73854
3 | 16:24.55 | 3:49.00 | 73855 | 91029
4 | 20:13.55 | 9:44.00 | 91030 | 134829
5 | 29:57.55 | 8:07.72 | 134830 | 171426
6 | 38:05.52 | 5:15.71 | 171427 | 195122
7 | 43:21.48 | 14:02.29 | 195123 | 258301
8 | 57:24.02 | 12:51.39 | 258302 | 316165
9 | 70:15.41 | 7:15.10 | 316166 | 348800
Stopa 1
nбzev souboru E:\inconstant sol\DON CHERRY - Eternal Now & Brown Rice\01 Don Cherry - Gamla Stan - The Old Town By Night.wav
љpiиkovб ъrovмт 93.4 %
kvalita stopy 99.9 %
CRC kopie D8FE41A5
kopie OK
Stopa 2
nбzev souboru E:\inconstant sol\DON CHERRY - Eternal Now & Brown Rice\02 Don Cherry - Love Train.wav
љpiиkovб ъrovмт 82.4 %
kvalita stopy 100.0 %
CRC kopie 74E1A01B
kopie OK
Stopa 3
nбzev souboru E:\inconstant sol\DON CHERRY - Eternal Now & Brown Rice\03 Don Cherry - Bass Figure For Ballatune.wav
љpiиkovб ъrovмт 89.4 %
kvalita stopy 100.0 %
CRC kopie D4C75299
kopie OK
Stopa 4
nбzev souboru E:\inconstant sol\DON CHERRY - Eternal Now & Brown Rice\04 Don Cherry - Moving Pictures For The Ear.wav
љpiиkovб ъrovмт 80.9 %
kvalita stopy 100.0 %
CRC kopie 30548A78
kopie OK
Stopa 5
nбzev souboru E:\inconstant sol\DON CHERRY - Eternal Now & Brown Rice\05 Don Cherry - Tibet.wav
љpiиkovб ъrovмт 74.1 %
kvalita stopy 100.0 %
CRC kopie 9614BF95
kopie OK
Stopa 6
nбzev souboru E:\inconstant sol\DON CHERRY - Eternal Now & Brown Rice\06 Don Cherry - Brown Rice.wav
љpiиkovб ъrovмт 86.4 %
kvalita stopy 100.0 %
CRC kopie A1FE2C23
kopie OK
Stopa 7
nбzev souboru E:\inconstant sol\DON CHERRY - Eternal Now & Brown Rice\07 Don Cherry - Malkauns.wav
љpiиkovб ъrovмт 79.7 %
kvalita stopy 100.0 %
CRC kopie 4CFE3107
kopie OK
Stopa 8
nбzev souboru E:\inconstant sol\DON CHERRY - Eternal Now & Brown Rice\08 Don Cherry - Chenrezig.wav
љpiиkovб ъrovмт 79.6 %
kvalita stopy 100.0 %
CRC kopie BA98942B
kopie OK
Stopa 9
nбzev souboru E:\inconstant sol\DON CHERRY - Eternal Now & Brown Rice\09 Don Cherry - Degi-Degi.wav
љpiиkovб ъrovмт 88.3 %
kvalita stopy 100.0 %
CRC kopie 10417DCC
kopie OK
Nedoљlo k ћбdnэm chybбm
Konec stavovйho hlбљenн
 
Содержание индексной карты (.CUE)
REM GENRE Ethnic
REM DATE 1974
REM DISCID 82122A09
REM COMMENT "ExactAudioCopy v0.99pb5"
PERFORMER "Don Cherry"
TITLE "Eternal Now"
FILE "01 Don Cherry - Gamla Stan - The Old Town By Night.wav" WAVE
TRACK 01 AUDIO
TITLE "Gamla Stan - The Old Town By Night"
PERFORMER "Don Cherry"
FLAGS DCP
PREGAP 00:00:01
INDEX 01 00:00:00
FILE "02 Don Cherry - Love Train.wav" WAVE
TRACK 02 AUDIO
TITLE "Love Train"
PERFORMER "Don Cherry"
FLAGS DCP
INDEX 01 00:00:00
FILE "03 Don Cherry - Bass Figure For Ballatune.wav" WAVE
TRACK 03 AUDIO
TITLE "Bass Figure For Ballatune"
PERFORMER "Don Cherry"
FLAGS DCP
INDEX 01 00:00:00
FILE "04 Don Cherry - Moving Pictures For The Ear.wav" WAVE
TRACK 04 AUDIO
TITLE "Moving Pictures For The Ear"
PERFORMER "Don Cherry"
FLAGS DCP
INDEX 01 00:00:00
FILE "05 Don Cherry - Tibet.wav" WAVE
TRACK 05 AUDIO
TITLE "Tibet"
PERFORMER "Don Cherry"
FLAGS DCP
INDEX 01 00:00:00
FILE "06 Don Cherry - Brown Rice.wav" WAVE
TRACK 06 AUDIO
TITLE "Brown Rice"
PERFORMER "Don Cherry"
FLAGS DCP
INDEX 01 00:00:00
FILE "07 Don Cherry - Malkauns.wav" WAVE
TRACK 07 AUDIO
TITLE "Malkauns"
PERFORMER "Don Cherry"
FLAGS DCP
INDEX 01 00:00:00
FILE "08 Don Cherry - Chenrezig.wav" WAVE
TRACK 08 AUDIO
TITLE "Chenrezig"
PERFORMER "Don Cherry"
FLAGS DCP
INDEX 01 00:00:00
FILE "09 Don Cherry - Degi-Degi.wav" WAVE
TRACK 09 AUDIO
TITLE "Degi-Degi"
PERFORMER "Don Cherry"
FLAGS DCP
INDEX 01 00:00:00
 
Лог проверки качества
-----------------------
DON'T MODIFY THIS FILE
-----------------------
PERFORMER: auCDtect Task Manager, ver. 1.6.0 RC1 build 1.6.0.1
Copyright (c) 2008-2010 y-soft. All rights reserved
http://y-soft.org
ANALYZER: auCDtect: CD records authenticity detector, version 0.8.2
Copyright (c) 2004 Oleg Berngardt. All rights reserved.
Copyright (c) 2004 Alexander Djourik. All rights reserved.
FILE: 09-Degi-Degi.flac
Size: 46943142 Hash: 619CA09F22219EE8774FF2FB35E24C04 Accuracy: -m0
Conclusion: CDDA 100%
Signature: FFB5FBBB4AB298720BDCCAB41ECE2DD0CFFA7478
FILE: 08-Chenrezig.flac
Size: 81097852 Hash: 2AF0F0B1D7E5F5035A724D18B9648B1D Accuracy: -m0
Conclusion: CDDA 100%
Signature: 98A582D796377CB7AC6AD1F54D2BB354B4B26E25
FILE: 07-Malkauns.flac
Size: 83825717 Hash: 325CB231C3324E14FDBBC34B6508CF33 Accuracy: -m0
Conclusion: CDDA 100%
Signature: C8D6EB9A077CAC74D51214A7884C54499E22AE42
FILE: 06-Brown Rice.flac
Size: 30969875 Hash: 450B43586479D1C8845E2DA4728CB286 Accuracy: -m0
Conclusion: CDDA 100%
Signature: 60C65B5833AEE8ED35DB1441FE39F9A4EA6BB535
FILE: 05-Tibet.flac
Size: 40519802 Hash: E02CBE37E95ED46E61A4B6D35113C5A6 Accuracy: -m0
Conclusion: CDDA 100%
Signature: 0331318CE9B509FAEAD183E1E20263ED681E5F96
FILE: 04-Moving Pictures For The Ear.flac
Size: 65912915 Hash: 526AA832304C5E71186AB360981BF002 Accuracy: -m0
Conclusion: CDDA 99%
Signature: E30A65A57A5491D63D2C014D4298894E45007A51
FILE: 03-Bass Figure For Ballatune.flac
Size: 19849368 Hash: E76BB1271EEE47902DFED7FEB4B853A1 Accuracy: -m0
Conclusion: CDDA 62%
Signature: FE00C37DF4AE04800A91EF76D84CBECAC0027662
FILE: 02-Love Train.flac
Size: 44492856 Hash: 37321AF1F93F4492A7768686F54AAFC8 Accuracy: -m0
Conclusion: CDDA 94%
Signature: 68238AA148FD889A4886351A2F384DADEEB7D1DC
FILE: 01-Gamla Stan - The Old Town By Night.flac
Size: 39974940 Hash: E5A6DF7E829A7DB9AA5D9AC7A2616B42 Accuracy: -m0
Conclusion: CDDA 100%
Signature: 21CD0DFC7E557D286E594465374446B1BAE87F19
 
Скриншот спектра частот
 
Об альбоме (сборнике)
Eternal Now
Recorded at Studio Decibel in Stockholm, Sweden on April 30 (tracks 2-4) and May 1 (tracks 1 & 5), 1973.
Brown Rice
Recorded at The Basement Recording Studios in New York (tracks 1, 2 & 4) and at Grog Kill in Woodstock (track 3)
 
Состав
Eternal Now
Don Cherry - trumpet, piano, harmonium, vocals, h'suan, daster, gong
Bengt Berger - piano, Tibetan bells, African finger piano, mridangam, cymbal
Christer Bothén - piano, dousso n'koni, Tibetan bells
Bernt Rosengren - tárogató
Agneta Ernström - Tibetan bells, dousso kynia
Brown Rice
Don Cherry - trumpet, piano, electric piano, vocals
Frank Lowe - saxophone (tracks 1, 3 and 4)
Ricky Cherry - piano, electric piano (tracks 1, 3 and 4)
Charlie Haden - bass (tracks 1, 2 and 4)
Billy Higgins - drums
Verna Gillis - vocals (track 1)
Bunchie Fox - bongos (track 1)
Hakim Jamil - bass (track 3)
Moki - tambura (track 2)
19:26
521
Нет комментариев. Ваш будет первым!