Поиск

(Ethnic Jazz, World Fusion) Marcel Khalife - Caress - 2008, FLAC (tracks+.cue), lossless

Треклист:
•Marcel Khalife - Caress•
Жанр: Ethnic Jazz, World Fusion
Год издания: 2008
Издатель (лейбл): Nagam Records
Аудиокодек: FLAC (*.flac)
Тип рипа: tracks+.cue
Битрейт аудио: lossless
Продолжительность: 00:50:39
Источник (релизер): jlgt
Наличие сканов в содержимом раздачи: да
Треклист:
01. Caress [07:53]
02. Al Hambra [02:59]
03. Granada [06:36]
04. Tents [03:50]
05. Popular Cafe [07:09]
06. Samai Bayati [04:51]
07. Passport [08:18]
08. I Pass by your Name [09:01]
Personnel:
Marcel Khalifé - oud
Rami Khalifé - piano
Peter Herbert - double bass
Bachar Kahlifé - percussion-vibraphone, congas, bongos, tabla, riq & mazhar
 
Лог создания рипа
Exact Audio Copy V1.0 beta 1 from 15. November 2010
EAC extraction logfile from 24. December 2011, 12:45
Marcel Khalife / Caress
Used drive : HL-DT-STDVD-RAM GH22LP20 Adapter: 5 ID: 0
Read mode : Secure
Utilize accurate stream : Yes
Defeat audio cache : Yes
Make use of C2 pointers : No
Read offset correction : 102
Overread into Lead-In and Lead-Out : No
Fill up missing offset samples with silence : Yes
Delete leading and trailing silent blocks : No
Null samples used in CRC calculations : Yes
Used interface : Native Win32 interface for Win NT & 2000
Gap handling : Appended to previous track
Used output format : User Defined Encoder
Selected bitrate : 768 kBit/s
Quality : High
Add ID3 tag : No
Command line compressor : C:\Archivos de programa\Exact Audio Copy\FLAC\FLAC.EXE
Additional command line options : -8 -V -T "ARTIST=%a" -T "TITLE=%t" -T "ALBUM=%g" -T "DATE=%y" -T "TRACKNUMBER=%n" -T "TOTALTRACKS=%x" -T "GENRE=%m" -T "ALBUMARTIST=%v" -T "ALBUM ARTIST=%v" -T "COMMENT=EAC Secure Mode, Test & Copy, AccurateRip, FLAC -8" %s
TOC of the extracted CD
Track | Start | Length | Start sector | End sector
---------------------------------------------------------
1 | 0:00.00 | 7:53.25 | 0 | 35499
2 | 7:53.25 | 2:59.64 | 35500 | 48988
3 | 10:53.14 | 6:36.15 | 48989 | 78703
4 | 17:29.29 | 3:50.06 | 78704 | 95959
5 | 21:19.35 | 7:09.16 | 95960 | 128150
6 | 28:28.51 | 4:51.19 | 128151 | 149994
7 | 33:19.70 | 8:18.60 | 149995 | 187404
8 | 41:38.55 | 9:01.15 | 187405 | 227994
Track 1
Filename D:\flac rips\01 - Caress.wav
Pre-gap length 0:00:02.00
Peak level 96.6 %
Extraction speed 1.7 X
Track quality 100.0 %
Test CRC 737F32C9
Copy CRC 737F32C9
Track not present in AccurateRip database
Copy OK
Track 2
Filename D:\flac rips\02 - Al Hambra.wav
Peak level 96.6 %
Extraction speed 1.8 X
Track quality 100.0 %
Test CRC 8661FEB6
Copy CRC 8661FEB6
Track not present in AccurateRip database
Copy OK
Track 3
Filename D:\flac rips\03 - Granada.wav
Peak level 96.1 %
Extraction speed 2.2 X
Track quality 100.0 %
Test CRC E633A460
Copy CRC E633A460
Track not present in AccurateRip database
Copy OK
Track 4
Filename D:\flac rips\04 - Tents.wav
Peak level 95.0 %
Extraction speed 2.2 X
Track quality 100.0 %
Test CRC 13FDF76F
Copy CRC 13FDF76F
Track not present in AccurateRip database
Copy OK
Track 5
Filename D:\flac rips\05 - Popular Cafe.wav
Peak level 90.4 %
Extraction speed 2.6 X
Track quality 100.0 %
Test CRC 4C158BF1
Copy CRC 4C158BF1
Track not present in AccurateRip database
Copy OK
Track 6
Filename D:\flac rips\06 - Samai Bayati.wav
Peak level 96.6 %
Extraction speed 2.6 X
Track quality 100.0 %
Test CRC 17403EB4
Copy CRC 17403EB4
Track not present in AccurateRip database
Copy OK
Track 7
Filename D:\flac rips\07 - Passport.wav
Peak level 88.3 %
Extraction speed 3.0 X
Track quality 100.0 %
Test CRC 78BD3193
Copy CRC 78BD3193
Track not present in AccurateRip database
Copy OK
Track 8
Filename D:\flac rips\08 - I Pass by your Name.wav
Peak level 100.0 %
Extraction speed 3.2 X
Track quality 100.0 %
Test CRC 63614250
Copy CRC 63614250
Track not present in AccurateRip database
Copy OK
None of the tracks are present in the AccurateRip database
No errors occurred
End of status report
==== Log checksum D88640523383FD8750E48EF48A6A1B158FA1E82C954E9C24001DEC48EDC96621 ====
 
Содержание индексной карты (.CUE)
REM GENRE "World Music"
REM DATE 2008
REM DISCID 480BDF08
REM COMMENT "ExactAudioCopy v1.0b1"
PERFORMER "Marcel Khalife"
TITLE "Caress"
FILE "01 - Caress.wav" WAVE
TRACK 01 AUDIO
TITLE "Caress"
PERFORMER "Marcel Khalife"
FLAGS DCP
INDEX 01 00:00:00
FILE "02 - Al Hambra.wav" WAVE
TRACK 02 AUDIO
TITLE "Al Hambra"
PERFORMER "Marcel Khalife"
FLAGS DCP
INDEX 01 00:00:00
FILE "03 - Granada.wav" WAVE
TRACK 03 AUDIO
TITLE "Granada"
PERFORMER "Marcel Khalife"
FLAGS DCP
INDEX 01 00:00:00
FILE "04 - Tents.wav" WAVE
TRACK 04 AUDIO
TITLE "Tents"
PERFORMER "Marcel Khalife"
FLAGS DCP
INDEX 01 00:00:00
FILE "05 - Popular Cafe.wav" WAVE
TRACK 05 AUDIO
TITLE "Popular Cafe"
PERFORMER "Marcel Khalife"
FLAGS DCP
INDEX 01 00:00:00
FILE "06 - Samai Bayati.wav" WAVE
TRACK 06 AUDIO
TITLE "Samai Bayati"
PERFORMER "Marcel Khalife"
FLAGS DCP
INDEX 01 00:00:00
FILE "07 - Passport.wav" WAVE
TRACK 07 AUDIO
TITLE "Passport"
PERFORMER "Marcel Khalife"
FLAGS DCP
INDEX 01 00:00:00
FILE "08 - I Pass by your Name.wav" WAVE
TRACK 08 AUDIO
TITLE "I Pass by your Name"
PERFORMER "Marcel Khalife"
FLAGS DCP
INDEX 01 00:00:00
03:37
351
Нет комментариев. Ваш будет первым!