Поиск

(Ethnic Jazz, World Fusion) Jorge Pardo - Huellas {2CD} - 2012, FLAC (tracks+.cue), lossless

(Ethnic Jazz, World Fusion) Jorge Pardo - Huellas {2CD} - 2012, FLAC (tracks+.cue), lossless
Треклист:
•Jorge Pardo - Huellas {2CD}•
Жанр: Ethnic Jazz, World Fusion
Год издания: 2012
Издатель (лейбл): Cabra Road
Номер по каталогу: CR1201
Аудиокодек: FLAC (*.flac)
Тип рипа: tracks+.cue
Битрейт аудио: lossless
Продолжительность: 02:01:07
Источник (релизер): jlgt
Наличие сканов в содержимом раздачи: да
 
CD1 - 01:00:17
Треклист:

01.Zapatito [06:55]
02.Chulo Miguel [08:01]
03.Y Tu Tambien [05:19]
04.En el Humo [09:03]
05.Cora Cora [05:29]
06.El Rio [06:22]
07.El Faro [06:56]
08.De Madrugada En El Tito's [07:36]
09.Surcos [04:33]
 
Лог создания рипа
Exact Audio Copy V1.0 beta 2 from 29. April 2011
EAC extraction logfile from 16. April 2012, 3:39
Jorge Pardo / Huellas (CD1)
Used drive : PLEXTOR DVDR PX-L890SA Adapter: 2 ID: 1
Read mode : Secure
Utilize accurate stream : Yes
Defeat audio cache : Yes
Make use of C2 pointers : No
Read offset correction : 6
Overread into Lead-In and Lead-Out : No
Fill up missing offset samples with silence : Yes
Delete leading and trailing silent blocks : No
Null samples used in CRC calculations : Yes
Used interface : Native Win32 interface for Win NT & 2000
Gap handling : Appended to previous track
Used output format : User Defined Encoder
Selected bitrate : 256 kBit/s
Quality : High
Add ID3 tag : No
Command line compressor : C:\Program Files (x86)\Exact Audio Copy\FLAC\FLAC.EXE
Additional command line options : -8 -V -T "ARTIST=%artist%" -T "TITLE=%title%" -T "ALBUM=%albumtitle%" -T "DATE=%year%" -T "TRACKNUMBER=%tracknr%" -T "TOTALTRACKS=%numtracks%" -T "GENRE=%genre%" -T "ALBUMARTIST=%albumartist%" -T "ALBUM ARTIST=%albumartist%
TOC of the extracted CD
Track | Start | Length | Start sector | End sector
---------------------------------------------------------
1 | 0:00.00 | 6:55.55 | 0 | 31179
2 | 6:55.55 | 8:01.52 | 31180 | 67306
3 | 14:57.32 | 5:19.68 | 67307 | 91299
4 | 20:17.25 | 9:03.25 | 91300 | 132049
5 | 29:20.50 | 5:29.25 | 132050 | 156749
6 | 34:50.00 | 6:22.00 | 156750 | 185399
7 | 41:12.00 | 6:56.31 | 185400 | 216630
8 | 48:08.31 | 7:36.19 | 216631 | 250849
9 | 55:44.50 | 4:33.25 | 250850 | 271349
Track 1
Filename F:\Flac Rips\01 - Zapatito.wav
Pre-gap length 0:00:02.00
Peak level 98.9 %
Extraction speed 3.7 X
Track quality 100.0 %
Test CRC 6C31729D
Copy CRC 6C31729D
Track not present in AccurateRip database
Copy OK
Track 2
Filename F:\Flac Rips\02 - Chulo Miguel.wav
Peak level 98.9 %
Extraction speed 4.1 X
Track quality 99.9 %
Test CRC 8C86A685
Copy CRC 8C86A685
Track not present in AccurateRip database
Copy OK
Track 3
Filename F:\Flac Rips\03 - Y tu Tambien.wav
Peak level 98.9 %
Extraction speed 4.9 X
Track quality 100.0 %
Test CRC 6FC977EA
Copy CRC 6FC977EA
Track not present in AccurateRip database
Copy OK
Track 4
Filename F:\Flac Rips\04 - En el Humo.wav
Peak level 98.9 %
Extraction speed 5.7 X
Track quality 100.0 %
Test CRC 31DEE1CF
Copy CRC 31DEE1CF
Track not present in AccurateRip database
Copy OK
Track 5
Filename F:\Flac Rips\05 - Cora Cora.wav
Peak level 98.9 %
Extraction speed 4.9 X
Track quality 99.9 %
Test CRC 17671C98
Copy CRC 17671C98
Track not present in AccurateRip database
Copy OK
Track 6
Filename F:\Flac Rips\06 - El Rio.wav
Peak level 98.9 %
Extraction speed 6.3 X
Track quality 100.0 %
Test CRC C679029B
Copy CRC C679029B
Track not present in AccurateRip database
Copy OK
Track 7
Filename F:\Flac Rips\07 - El Faro.wav
Peak level 98.9 %
Extraction speed 6.8 X
Track quality 100.0 %
Test CRC 2D4AD308
Copy CRC 2D4AD308
Track not present in AccurateRip database
Copy OK
Track 8
Filename F:\Flac Rips\08 - De madrugada en el Tito's.wav
Peak level 98.8 %
Extraction speed 7.2 X
Track quality 100.0 %
Test CRC 4F41AC37
Copy CRC 4F41AC37
Track not present in AccurateRip database
Copy OK
Track 9
Filename F:\Flac Rips\09 - Surcos.wav
Peak level 98.8 %
Extraction speed 4.5 X
Track quality 99.9 %
Test CRC 1DCF6A10
Copy CRC 1DCF6A10
Track not present in AccurateRip database
Copy OK
None of the tracks are present in the AccurateRip database
No errors occurred
End of status report
==== Log checksum 538F3471071D7EA25C71DA48E2BA87184DB50A86873C4E10938D834F6013AF8F ====
 
Содержание индексной карты (.CUE)
REM GENRE Flamenco-Jazz
REM DATE 2012
REM DISCID 860E2209
REM COMMENT "ExactAudioCopy v1.0b2"
PERFORMER "Jorge Pardo"
TITLE "Huellas (CD1)"
FILE "01 - Zapatito.wav" WAVE
TRACK 01 AUDIO
TITLE "Zapatito"
PERFORMER "Jorge Pardo"
INDEX 01 00:00:00
FILE "02 - Chulo Miguel.wav" WAVE
TRACK 02 AUDIO
TITLE "Chulo Miguel"
PERFORMER "Jorge Pardo"
INDEX 01 00:00:00
FILE "03 - Y tu Tambien.wav" WAVE
TRACK 03 AUDIO
TITLE "Y tu Tambien"
PERFORMER "Jorge Pardo"
INDEX 01 00:00:00
FILE "04 - En el Humo.wav" WAVE
TRACK 04 AUDIO
TITLE "En el Humo"
PERFORMER "Jorge Pardo"
INDEX 01 00:00:00
FILE "05 - Cora Cora.wav" WAVE
TRACK 05 AUDIO
TITLE "Cora Cora"
PERFORMER "Jorge Pardo"
INDEX 01 00:00:00
FILE "06 - El Rio.wav" WAVE
TRACK 06 AUDIO
TITLE "El Rio"
PERFORMER "Jorge Pardo"
INDEX 01 00:00:00
FILE "07 - El Faro.wav" WAVE
TRACK 07 AUDIO
TITLE "El Faro"
PERFORMER "Jorge Pardo"
INDEX 01 00:00:00
FILE "08 - De madrugada en el Tito's.wav" WAVE
TRACK 08 AUDIO
TITLE "De madrugada en el Tito's"
PERFORMER "Jorge Pardo"
INDEX 01 00:00:00
FILE "09 - Surcos.wav" WAVE
TRACK 09 AUDIO
TITLE "Surcos"
PERFORMER "Jorge Pardo"
INDEX 01 00:00:00
 
CD2 - 01:00:49
Треклист:

01.Al despertar [04:31]
02.Huellas [08:33]
03.Los Juncos [07:59]
04.Puerta del Sol Expresso [07:53]
05.Sanlucar-Mojacar [04:47]
06.Cometas [07:01]
07.Maid Marian [08:55]
08.Chungali [04:45]
09.Una Noche en el Aku Aku [06:21]
 
Лог создания рипа
Exact Audio Copy V1.0 beta 2 from 29. April 2011
EAC extraction logfile from 16. April 2012, 4:05
Jorge Pardo / Huellas (CD2)
Used drive : PLEXTOR DVDR PX-L890SA Adapter: 2 ID: 1
Read mode : Secure
Utilize accurate stream : Yes
Defeat audio cache : Yes
Make use of C2 pointers : No
Read offset correction : 6
Overread into Lead-In and Lead-Out : No
Fill up missing offset samples with silence : Yes
Delete leading and trailing silent blocks : No
Null samples used in CRC calculations : Yes
Used interface : Native Win32 interface for Win NT & 2000
Gap handling : Appended to previous track
Used output format : User Defined Encoder
Selected bitrate : 256 kBit/s
Quality : High
Add ID3 tag : No
Command line compressor : C:\Program Files (x86)\Exact Audio Copy\FLAC\FLAC.EXE
Additional command line options : -8 -V -T "ARTIST=%artist%" -T "TITLE=%title%" -T "ALBUM=%albumtitle%" -T "DATE=%year%" -T "TRACKNUMBER=%tracknr%" -T "TOTALTRACKS=%numtracks%" -T "GENRE=%genre%" -T "ALBUMARTIST=%albumartist%" -T "ALBUM ARTIST=%albumartist%
TOC of the extracted CD
Track | Start | Length | Start sector | End sector
---------------------------------------------------------
1 | 0:00.00 | 4:31.05 | 0 | 20329
2 | 4:31.05 | 8:33.19 | 20330 | 58823
3 | 13:04.24 | 7:59.68 | 58824 | 94816
4 | 21:04.17 | 7:53.43 | 94817 | 130334
5 | 28:57.60 | 4:47.72 | 130335 | 151931
6 | 33:45.57 | 7:01.53 | 151932 | 183559
7 | 40:47.35 | 8:55.16 | 183560 | 223700
8 | 49:42.51 | 4:45.54 | 223701 | 245129
9 | 54:28.30 | 6:21.45 | 245130 | 273749
Track 1
Filename F:\Flac Rips\01 - Al despertar.wav
Pre-gap length 0:00:02.00
Peak level 98.9 %
Extraction speed 3.5 X
Track quality 100.0 %
Test CRC E83B4625
Copy CRC E83B4625
Track not present in AccurateRip database
Copy OK
Track 2
Filename F:\Flac Rips\02 - Huellas.wav
Peak level 98.9 %
Extraction speed 3.9 X
Track quality 99.9 %
Test CRC ED45FEE8
Copy CRC ED45FEE8
Track not present in AccurateRip database
Copy OK
Track 3
Filename F:\Flac Rips\03 - Los Juncos.wav
Peak level 98.9 %
Extraction speed 5.0 X
Track quality 100.0 %
Test CRC DB8A7C8C
Copy CRC DB8A7C8C
Track not present in AccurateRip database
Copy OK
Track 4
Filename F:\Flac Rips\04 - Puerta del Sol Expresso.wav
Peak level 98.8 %
Extraction speed 5.6 X
Track quality 100.0 %
Test CRC 6070E41C
Copy CRC 6070E41C
Track not present in AccurateRip database
Copy OK
Track 5
Filename F:\Flac Rips\05 - Sanlucar-Mojacar.wav
Peak level 98.8 %
Extraction speed 5.8 X
Track quality 100.0 %
Test CRC 5D601728
Copy CRC 5D601728
Track not present in AccurateRip database
Copy OK
Track 6
Filename F:\Flac Rips\06 - Cometas.wav
Peak level 98.9 %
Extraction speed 6.4 X
Track quality 100.0 %
Test CRC 2ABD9281
Copy CRC 2ABD9281
Track not present in AccurateRip database
Copy OK
Track 7
Filename F:\Flac Rips\07 - Maid Marian.wav
Peak level 98.9 %
Extraction speed 6.9 X
Track quality 100.0 %
Test CRC ACABAE94
Copy CRC ACABAE94
Track not present in AccurateRip database
Copy OK
Track 8
Filename F:\Flac Rips\08 - Chungali.wav
Peak level 98.9 %
Extraction speed 6.9 X
Track quality 100.0 %
Test CRC F9A0F04C
Copy CRC F9A0F04C
Track not present in AccurateRip database
Copy OK
Track 9
Filename F:\Flac Rips\09 - Una Noche en el Aku Aku.wav
Peak level 98.9 %
Extraction speed 7.4 X
Track quality 100.0 %
Test CRC ABBADCD8
Copy CRC ABBADCD8
Track not present in AccurateRip database
Copy OK
None of the tracks are present in the AccurateRip database
No errors occurred
End of status report
==== Log checksum 5466F5C8666D37B7104C2CB779B0F9D346988A10D66CF17629AE631CB10C7E0C ====
 
Содержание индексной карты (.CUE)
REM GENRE Flamenco-Jazz
REM DATE 2012
REM DISCID 870E4209
REM COMMENT "ExactAudioCopy v1.0b2"
PERFORMER "Jorge Pardo"
TITLE "Huellas (CD2)"
FILE "01 - Al despertar.wav" WAVE
TRACK 01 AUDIO
TITLE "Al despertar"
PERFORMER "Jorge Pardo"
INDEX 01 00:00:00
FILE "02 - Huellas.wav" WAVE
TRACK 02 AUDIO
TITLE "Huellas"
PERFORMER "Jorge Pardo"
INDEX 01 00:00:00
FILE "03 - Los Juncos.wav" WAVE
TRACK 03 AUDIO
TITLE "Los Juncos"
PERFORMER "Jorge Pardo"
INDEX 01 00:00:00
FILE "04 - Puerta del Sol Expresso.wav" WAVE
TRACK 04 AUDIO
TITLE "Puerta del Sol Expresso"
PERFORMER "Jorge Pardo"
INDEX 01 00:00:00
FILE "05 - Sanlucar-Mojacar.wav" WAVE
TRACK 05 AUDIO
TITLE "Sanlucar-Mojacar"
PERFORMER "Jorge Pardo"
INDEX 01 00:00:00
FILE "06 - Cometas.wav" WAVE
TRACK 06 AUDIO
TITLE "Cometas"
PERFORMER "Jorge Pardo"
INDEX 01 00:00:00
FILE "07 - Maid Marian.wav" WAVE
TRACK 07 AUDIO
TITLE "Maid Marian"
PERFORMER "Jorge Pardo"
INDEX 01 00:00:00
FILE "08 - Chungali.wav" WAVE
TRACK 08 AUDIO
TITLE "Chungali"
PERFORMER "Jorge Pardo"
INDEX 01 00:00:00
FILE "09 - Una Noche en el Aku Aku.wav" WAVE
TRACK 09 AUDIO
TITLE "Una Noche en el Aku Aku"
PERFORMER "Jorge Pardo"
INDEX 01 00:00:00
 
Состав
Personnel:
Jorge Pardo - soprano and tenor sax, flute
Enrique Rodriguez - trumpet, flugelhorn
Tino Di Geraldo - drums
Carles Benavent - bass
Dave Samuels - marimba
Diego Guerrero - guitar
Rafael Navarro - marimba
Othello Molineaux - steel drums
Martin Leiton - double-bass
Jeff Ballard - drums
Sergio Martinez - percussion, cajon
La pena - claps
Juan Pena - cajon
Juan Grande - drums
Javier Colina - bass
Juan Diego - guitar
Jerry Gonzalez - trumpet, percussion
Carlos Gomez - marimba
Agustin Carbonell "El Bola" - guitar
Alfredo Paixao - bass
Pablo Martinez - trombone
Ruben Heredia - guitar
Daniel Parra - marimba
Fernando y Joselete - vocals
Luis Amador - cajon
Pablo Martin Caminero - double-bass
Victor Mendoza - vibraphone
Tres; Raul Rodriguez
Pablo Baez - bass
Norman Hogue - trombon
Santi Ibarretxe - alto sax, vocal
Martin Leiton - bass
Ruben de Rosario - guitar
Enric Monfort - marimba
Nino Josele - guitar
Toni Cuenca - double-bass
Moises Santiago - cajon
Tomatito - guitar
Mati Gonzalez - vocal
Antonio Gomez - guitar
Richard Sprince - vibraphone
Juanmi Guzman - bass
Carlos Carli - drums
Pedro Garcia - percussion
Gil Goldstein - acordeon
Paquete - guitar
Antonio Serrano - harmonica
Israel Varela - drums
Luismo Valladares - bass
Luis Balaguer - guitar
Lorena Alcaraz - flute
David Pastor - trumpet
Josemi Carmona - guitar
02:35
279
Нет комментариев. Ваш будет первым!