Поиск

(Ethnic Jazz, Vocal Jazz, Latin, Flamenco) Martirio - Flor De Piel (Cantes De La Otra Orilla) (1999) {Karonte / 52 P.M. 52 PM01, Spain} - 2003, FLAC (tracks+.cue) lossless

(Ethnic Jazz, Vocal Jazz, Latin, Flamenco) Martirio - Flor De Piel (Cantes De La Otra Orilla) (1999) {Karonte / 52 P.M. 52 PM01, Spain} - 2003, FLAC (tracks+.cue) lossless
Треклист:
Martirio - Flor de piel (Cante de la Otra Orilla)
Жанр: Ethnic Jazz, Vocal Jazz, Latin, Flamenco
Страна-производитель диска: Spain
Год издания диска: 2003
Издатель (лейбл): Karonte / 52 P.M.
Номер по каталогу: 52 PM01
Аудио кодек: FLAC (*.flac)
Тип рипа: tracks+.cue
Битрейт аудио: lossless
Продолжительность: 00:49:51
Источник (релизер): IsraBox (artmuss)
Наличие сканов в содержимом раздачи: да (front + back)
Треклист:
01. Júrame
02. Si Me Pudieras Querer
03. En Esta Tarde Gris
04. Una Semana Sin Tí
05. Alma Mía
06. ¿Hacia Dónde?
07. Volver
08. No Te Importe Saber
09. Lo Que Tenía Que Ser
10. Uno
11. Quísiera Amarte Menos
12. Las Simples Cosas
Recorded at Estudios Infinity, Madrid, Spain in March-May 1999.
Personnel:
Martirio (vocals);
Raul Rodriguez (guitar, tres, percussion);
Paco De Amparo (guitar);
Jorge Pozas (cello);
Chano Dominguez (piano);
Javier Colina (bass);
Guillermo McGuill (drums, cajon);
Rogerio De Souza (percussion);
Pepe Torres (feet, compas);
Luis Torres (compas).
 
Лог создания рипа (XLD Log)
X Lossless Decoder version 20120609 (141.0)
XLD extraction logfile from 2012-08-08 19:30:20 +0200
Martirio / Flor De Piel
Used drive : MATSHITA DVD-R UJ-898 (revision HC09)
Ripper mode : XLD Secure Ripper
Disable audio cache : OK for the drive with a cache less than 1375KiB
Make use of C2 pointers : NO
Read offset correction : 102
Max retry count : 100
Gap status : Analyzed, Appended (except HTOA)
TOC of the extracted CD
Track | Start | Length | Start sector | End sector
---------------------------------------------------------
1 | 00:00:00 | 04:25:01 | 0 | 19875
2 | 04:25:01 | 03:48:72 | 19876 | 37047
3 | 08:13:73 | 05:11:69 | 37048 | 60441
4 | 13:25:67 | 02:40:69 | 60442 | 72510
5 | 16:06:61 | 04:10:57 | 72511 | 91317
6 | 20:17:43 | 04:56:51 | 91318 | 113568
7 | 25:14:19 | 04:06:37 | 113569 | 132055
8 | 29:20:56 | 04:11:20 | 132056 | 150900
9 | 33:32:01 | 03:51:00 | 150901 | 168225
10 | 37:23:01 | 04:49:59 | 168226 | 189959
11 | 42:12:60 | 03:27:16 | 189960 | 205500
12 | 45:40:01 | 04:11:13 | 205501 | 224338
AccurateRip Summary (DiscID: 00165d93-00d08a5b-a40baf0c)
Track 01 : OK (v1, confidence 6/6)
Track 02 : OK (v1, confidence 6/6)
Track 03 : OK (v1, confidence 6/6)
Track 04 : OK (v1, confidence 5/5)
Track 05 : OK (v1, confidence 6/6)
Track 06 : OK (v1, confidence 6/6)
Track 07 : OK (v1, confidence 6/6)
Track 08 : OK (v1, confidence 6/6)
Track 09 : OK (v1, confidence 5/5)
Track 10 : OK (v1, confidence 5/5)
Track 11 : OK (v1, confidence 5/5)
Track 12 : OK (v1, confidence 6/6)
->All tracks accurately ripped.
All Tracks
Album gain : -6.86 dB
Peak : 0.975922
Statistics
Read error : 0
Jitter error (maybe fixed) : 0
Retry sector count : 0
Damaged sector count : 0
Track 01
Filename : /Users/lvito/Desktop/MyDocs/RIPS/Flor De Piel - Martirio (2001) [FLAC]/01 Júrame.flac
Pre-gap length : 00:02:00
Track gain : -6.14 dB
Peak : 0.951416
CRC32 hash (test run) : 7AC856DC
CRC32 hash : 7AC856DC
CRC32 hash (skip zero) : E17C4F15
AccurateRip v1 signature : 11A827D0
AccurateRip v2 signature : 40E37119
->Accurately ripped (v1, confidence 6/6)
Statistics
Read error : 0
Jitter error (maybe fixed) : 0
Retry sector count : 0
Damaged sector count : 0
Track 02
Filename : /Users/lvito/Desktop/MyDocs/RIPS/Flor De Piel - Martirio (2001) [FLAC]/02 Si Me Pudieras Querer.flac
Track gain : -7.16 dB
Peak : 0.952057
CRC32 hash (test run) : 0C254E82
CRC32 hash : 0C254E82
CRC32 hash (skip zero) : 62FAC0F8
AccurateRip v1 signature : 0927862B
AccurateRip v2 signature : CC82C961
->Accurately ripped (v1, confidence 6/6)
Statistics
Read error : 0
Jitter error (maybe fixed) : 0
Retry sector count : 0
Damaged sector count : 0
Track 03
Filename : /Users/lvito/Desktop/MyDocs/RIPS/Flor De Piel - Martirio (2001) [FLAC]/03 En Esta Tarde Gris.flac
Track gain : -7.62 dB
Peak : 0.970306
CRC32 hash (test run) : CA90B106
CRC32 hash : CA90B106
CRC32 hash (skip zero) : 81179E6C
AccurateRip v1 signature : FC1DBA6C
AccurateRip v2 signature : 22673543
->Accurately ripped (v1, confidence 6/6)
Statistics
Read error : 0
Jitter error (maybe fixed) : 0
Retry sector count : 0
Damaged sector count : 0
Track 04
Filename : /Users/lvito/Desktop/MyDocs/RIPS/Flor De Piel - Martirio (2001) [FLAC]/04 Una Semana Sin Ti.flac
Track gain : -6.69 dB
Peak : 0.947113
CRC32 hash (test run) : 924CC535
CRC32 hash : 924CC535
CRC32 hash (skip zero) : 75E72BC3
AccurateRip v1 signature : 5805C9D2
AccurateRip v2 signature : 965361B1
->Accurately ripped (v1, confidence 5/5)
Statistics
Read error : 0
Jitter error (maybe fixed) : 0
Retry sector count : 0
Damaged sector count : 0
Track 05
Filename : /Users/lvito/Desktop/MyDocs/RIPS/Flor De Piel - Martirio (2001) [FLAC]/05 Alma Mía.flac
Track gain : -5.49 dB
Peak : 0.933228
CRC32 hash (test run) : 135E35EB
CRC32 hash : 135E35EB
CRC32 hash (skip zero) : 689E1779
AccurateRip v1 signature : 310ABA89
AccurateRip v2 signature : BBEFA5A0
->Accurately ripped (v1, confidence 6/6)
Statistics
Read error : 0
Jitter error (maybe fixed) : 0
Retry sector count : 0
Damaged sector count : 0
Track 06
Filename : /Users/lvito/Desktop/MyDocs/RIPS/Flor De Piel - Martirio (2001) [FLAC]/06 ¿Hacia Dónde?.flac
Track gain : -4.83 dB
Peak : 0.936279
CRC32 hash (test run) : A50080E8
CRC32 hash : A50080E8
CRC32 hash (skip zero) : 96946209
AccurateRip v1 signature : EF00C027
AccurateRip v2 signature : 03255DE6
->Accurately ripped (v1, confidence 6/6)
Statistics
Read error : 0
Jitter error (maybe fixed) : 0
Retry sector count : 0
Damaged sector count : 0
Track 07
Filename : /Users/lvito/Desktop/MyDocs/RIPS/Flor De Piel - Martirio (2001) [FLAC]/07 Volver.flac
Track gain : -8.27 dB
Peak : 0.956268
CRC32 hash (test run) : BA7AB425
CRC32 hash : BA7AB425
CRC32 hash (skip zero) : B533F01A
AccurateRip v1 signature : 4BB1845E
AccurateRip v2 signature : 7F44ECE4
->Accurately ripped (v1, confidence 6/6)
Statistics
Read error : 0
Jitter error (maybe fixed) : 0
Retry sector count : 0
Damaged sector count : 0
Track 08
Filename : /Users/lvito/Desktop/MyDocs/RIPS/Flor De Piel - Martirio (2001) [FLAC]/08 No Te Importe Saber.flac
Track gain : -6.64 dB
Peak : 0.957153
CRC32 hash (test run) : B3674F1E
CRC32 hash : B3674F1E
CRC32 hash (skip zero) : D9A06817
AccurateRip v1 signature : E6F0D4C4
AccurateRip v2 signature : 4264CD2A
->Accurately ripped (v1, confidence 6/6)
Statistics
Read error : 0
Jitter error (maybe fixed) : 0
Retry sector count : 0
Damaged sector count : 0
Track 09
Filename : /Users/lvito/Desktop/MyDocs/RIPS/Flor De Piel - Martirio (2001) [FLAC]/09 Lo Que Tenía Que Ser.flac
Track gain : -7.73 dB
Peak : 0.950531
CRC32 hash (test run) : 1F8B5067
CRC32 hash : 1F8B5067
CRC32 hash (skip zero) : AA04B528
AccurateRip v1 signature : 41453A79
AccurateRip v2 signature : B57B8CA1
->Accurately ripped (v1, confidence 5/5)
Statistics
Read error : 0
Jitter error (maybe fixed) : 0
Retry sector count : 0
Damaged sector count : 0
Track 10
Filename : /Users/lvito/Desktop/MyDocs/RIPS/Flor De Piel - Martirio (2001) [FLAC]/10 Uno.flac
Track gain : -6.11 dB
Peak : 0.963013
CRC32 hash (test run) : 9A9817AA
CRC32 hash : 9A9817AA
CRC32 hash (skip zero) : 53D331F7
AccurateRip v1 signature : BC9DD8EC
AccurateRip v2 signature : 2259A2C3
->Accurately ripped (v1, confidence 5/5)
Statistics
Read error : 0
Jitter error (maybe fixed) : 0
Retry sector count : 0
Damaged sector count : 0
Track 11
Filename : /Users/lvito/Desktop/MyDocs/RIPS/Flor De Piel - Martirio (2001) [FLAC]/11 Quisiera Amarte Menos.flac
Track gain : -7.28 dB
Peak : 0.942047
CRC32 hash (test run) : CB8AC3A9
CRC32 hash : CB8AC3A9
CRC32 hash (skip zero) : ADE3C440
AccurateRip v1 signature : D12EDA5D
AccurateRip v2 signature : 16286B57
->Accurately ripped (v1, confidence 5/5)
Statistics
Read error : 0
Jitter error (maybe fixed) : 0
Retry sector count : 0
Damaged sector count : 0
Track 12
Filename : /Users/lvito/Desktop/MyDocs/RIPS/Flor De Piel - Martirio (2001) [FLAC]/12 Las Simples Cosas.flac
Track gain : -1.89 dB
Peak : 0.975922
CRC32 hash (test run) : 34342EE3
CRC32 hash : 34342EE3
CRC32 hash (skip zero) : FED9AD27
AccurateRip v1 signature : 38A8F886
AccurateRip v2 signature : 5EAA13FA
->Accurately ripped (v1, confidence 6/6)
Statistics
Read error : 0
Jitter error (maybe fixed) : 0
Retry sector count : 0
Damaged sector count : 0
No errors occurred
End of status report
 
Содержание индексной карты (.CUE)
TITLE "Flor De Piel"
PERFORMER "Martirio"
REM GENRE "Traditional"
REM DATE "2001"
REM DISCNUMBER 1
REM TOTALDISCS 1
REM DISCID A40BAF0C
REM REPLAYGAIN_ALBUM_GAIN -6.86 dB
REM REPLAYGAIN_ALBUM_PEAK 0.975922
FILE "01 Jurame.flac" WAVE
TRACK 01 AUDIO
TITLE "Jurame"
SONGWRITER "Martirio"
REM REPLAYGAIN_TRACK_GAIN -6.14 dB
REM REPLAYGAIN_TRACK_PEAK 0.951416
INDEX 01 00:00:00
FILE "02 Si Me Pudieras Querer.flac" WAVE
TRACK 02 AUDIO
TITLE "Si Me Pudieras Querer"
SONGWRITER "Martirio"
REM REPLAYGAIN_TRACK_GAIN -7.16 dB
REM REPLAYGAIN_TRACK_PEAK 0.952057
INDEX 01 00:00:00
FILE "03 En Esta Tarde Gris.flac" WAVE
TRACK 03 AUDIO
TITLE "En Esta Tarde Gris"
SONGWRITER "Martirio"
REM REPLAYGAIN_TRACK_GAIN -7.62 dB
REM REPLAYGAIN_TRACK_PEAK 0.970306
INDEX 01 00:00:00
FILE "04 Una Semana Sin Ti.flac" WAVE
TRACK 04 AUDIO
TITLE "Una Semana Sin Ti"
SONGWRITER "Martirio"
REM REPLAYGAIN_TRACK_GAIN -6.69 dB
REM REPLAYGAIN_TRACK_PEAK 0.947113
INDEX 01 00:00:00
FILE "05 Alma Mia.flac" WAVE
TRACK 05 AUDIO
TITLE "Alma Mia"
SONGWRITER "Martirio"
REM REPLAYGAIN_TRACK_GAIN -5.49 dB
REM REPLAYGAIN_TRACK_PEAK 0.933228
INDEX 01 00:00:00
FILE "06 Hacia Donde.flac" WAVE
TRACK 06 AUDIO
TITLE "Hacia Donde"
SONGWRITER "Martirio"
REM REPLAYGAIN_TRACK_GAIN -4.83 dB
REM REPLAYGAIN_TRACK_PEAK 0.936279
INDEX 01 00:00:00
FILE "07 Volver.flac" WAVE
TRACK 07 AUDIO
TITLE "Volver"
SONGWRITER "Martirio"
REM REPLAYGAIN_TRACK_GAIN -8.27 dB
REM REPLAYGAIN_TRACK_PEAK 0.956268
INDEX 01 00:00:00
FILE "08 No Te Importe Saber.flac" WAVE
TRACK 08 AUDIO
TITLE "No Te Importe Saber"
SONGWRITER "Martirio"
REM REPLAYGAIN_TRACK_GAIN -6.64 dB
REM REPLAYGAIN_TRACK_PEAK 0.957153
INDEX 01 00:00:00
FILE "09 Lo Que Tenia Que Ser.flac" WAVE
TRACK 09 AUDIO
TITLE "Lo Que Tenia Que Ser"
SONGWRITER "Martirio"
REM REPLAYGAIN_TRACK_GAIN -7.73 dB
REM REPLAYGAIN_TRACK_PEAK 0.950531
INDEX 01 00:00:00
FILE "10 Uno.flac" WAVE
TRACK 10 AUDIO
TITLE "Uno"
SONGWRITER "Martirio"
REM REPLAYGAIN_TRACK_GAIN -6.11 dB
REM REPLAYGAIN_TRACK_PEAK 0.963013
INDEX 01 00:00:00
FILE "11 Quisiera Amarte Menos.flac" WAVE
TRACK 11 AUDIO
TITLE "Quisiera Amarte Menos"
SONGWRITER "Martirio"
REM REPLAYGAIN_TRACK_GAIN -7.28 dB
REM REPLAYGAIN_TRACK_PEAK 0.942047
INDEX 01 00:00:00
FILE "12 Las Simples Cosas.flac" WAVE
TRACK 12 AUDIO
TITLE "Las Simples Cosas"
SONGWRITER "Martirio"
REM REPLAYGAIN_TRACK_GAIN -1.89 dB
REM REPLAYGAIN_TRACK_PEAK 0.975922
INDEX 01 00:00:00
 
Editorial Review @ Amazon
It's hard to put a finger on the mercurial muse of Spanish chanteuse Martirio and guitarist/producer Raúl Rodríguez on Flor de Piel, her second domestic effort for Sunnyside. Much like they did on her exceptional debut, Mucho Corazon, the two (and their crew of backing musicians) make musical ports of call to Spanish and Portuguese cities throughout Europe and the America and bring a bouquet of influences onboard. Thus flamenco gracefully mixes with son, fado with bolero, café music of the city with traditional music of the provinces. Martirio navigates these shifting waters with grace, using her husky voice and Rodríguez's guitar work as the unifying force within the music. Highlights include the clever jazzy styling on "Alma Mía," the stripped-down and plaintive closer "Las Simples Cosas," and the fiery flamenco "Si Me Pudieras Querer." While the field of well-turned-out torch singers is a crowded one, here's a singer that deserves some time in the spotlight. --Tad Hendrickson
 
Customer Reviews @ Amazon
5.0 out of 5 stars - A really Special Performer - January 10, 2010
By: M. S. Horowitz
Martirio's music is from another generation. For all those who grew up listening to the music that your grandmothers would love to play, this is a special treat. I have purchased 6 copies and gifted them to Latino friends, who all expressed sincere appreciation after hearing these wonderful old songs.
----
5.0 out of 5 stars - Numero 1 en mi coleccion! - October 25, 2003
By: DELACRUZ
Escuche a Maririo por primera vez interpretando "Coplas de Madruga", me gusto pero no me cautivo, luego me regalaron el cd "Mucho Corazon" me enamore de su calidad de voz y la musica de Jerry Gonzalez, excelente fusion del Flamenco y el Jazz.Pero "Flor de Piel" es de lo mejor de mi coleccion de musica del mundo, me parece exquisito no me canso de escucharlo una y otra vez.Lo interesante es que son canciones que hemos escuchado interpretadas por grandes voces, pero Martirio en este album logra una interpretacion muy original con mucho corazon.
----
5.0 out of 5 stars - Martirio on Amazon! - August 30, 2012
By: Julio J. Martinez
My mom was looking for Martirio long time ago, when she appeared on Amazon i told her, she bought several disks and quite liked them.
05:45
227
Нет комментариев. Ваш будет первым!