Поиск

(Ethnic Jazz) Trilok Gurtu and the Frikyiwa family - Farakala - 2005, FLAC (image+.cue), lossless

Треклист:
Trilok Gurtu and the Frikyiwa family - Farakala
Жанр: Ethnic Jazz
Год выпуска диска: 2005
Производитель диска: France (Nocturne)
Аудио кодек: FLAC
Тип рипа: image+.cue
Битрейт аудио: lossless
Продолжительность: 48:02
Trilok Gurtu percussion, balafon, water calabash, shékéré
Hadja Kouyaté vocals
Ali Boulo Santo vocals, kora, kora wah-wah
N'Gou Bagayoko guitar, vocals
Filifin vocals, kamélé n'goni
Sounkalo dozon n'goni, backing vocal
Yaya carignan, backing vocal
Agne Yano
Mil-jul
Dhine Dhadhin
Doukhontou
Kalpana
Swapan
Roots No Fruits
Soumou
Di Blues Indian
Farakala
 
EAC Report
Exact Audio Copy V0.99 prebeta 4 from 23. January 2008
EAC extraction logfile from 23. June 2008, 7:34
Trilok Gurtu and the Frikyiwa family / Farakala
Used drive : TSSTcorpCD/DVDW SH-S182M Adapter: 2 ID: 1
Read mode : Secure
Utilize accurate stream : Yes
Defeat audio cache : Yes
Make use of C2 pointers : No
Read offset correction : 6
Overread into Lead-In and Lead-Out : No
Fill up missing offset samples with silence : Yes
Delete leading and trailing silent blocks : No
Null samples used in CRC calculations : No
Used interface : Installed external ASPI interface
Used output format : User Defined Encoder
Selected bitrate : 768 kBit/s
Quality : High
Add ID3 tag : No
Command line compressor : C:\Program Files\Exact Audio Copy\FLAC\FLAC.EXE
Additional command line options : -6 -V -T "ARTIST=%a" -T "TITLE=%t" -T "ALBUM=%g" -T "DATE=%y" -T "TRACKNUMBER=%n" -T "GENRE=%m" -T "COMMENT=%e" %s -o %d
TOC of the extracted CD
Track | Start | Length | Start sector | End sector
---------------------------------------------------------
1 | 0:00.00 | 3:37.02 | 0 | 16276
2 | 3:37.02 | 5:21.39 | 16277 | 40390
3 | 8:58.41 | 6:27.36 | 40391 | 69451
4 | 15:26.02 | 4:13.27 | 69452 | 88453
5 | 19:39.29 | 5:36.42 | 88454 | 113695
6 | 25:15.71 | 5:10.43 | 113696 | 136988
7 | 30:26.39 | 5:40.16 | 136989 | 162504
8 | 36:06.55 | 4:21.48 | 162505 | 182127
9 | 40:28.28 | 3:58.26 | 182128 | 200003
10 | 44:26.54 | 3:35.52 | 200004 | 216180
Range status and errors
Selected range
Filename F:\z\Trilok Gurtu and the Frikyiwa family - Farakala.wav
Peak level 100.0 %
Range quality 100.0 %
Copy CRC D7978179
Copy OK
No errors occurred
AccurateRip summary
Track 1 accurately ripped (confidence 1) [6493150E]
Track 2 accurately ripped (confidence 1) [65430956]
Track 3 accurately ripped (confidence 1) [33C238C4]
Track 4 accurately ripped (confidence 1) [4108696A]
Track 5 accurately ripped (confidence 1) [DEAEFA5B]
Track 6 accurately ripped (confidence 1) [B9A2B6D3]
Track 7 accurately ripped (confidence 1) [ECC21411]
Track 8 accurately ripped (confidence 1) [948A8DD6]
Track 9 accurately ripped (confidence 1) [387D5301]
Track 10 accurately ripped (confidence 1) [5F74CEDC]
All tracks accurately ripped
End of status report

ТОРРЕНТ ПЕРЕЗАЛИТ 24.05.2017, 00:45 МСК по техническим причинам. Содержимое не менялось.
Просьба ко всем ранее скачавшим, присоединяться к раздаче.
03:38
243
Нет комментариев. Ваш будет первым!