Поиск

(Ethnic Jazz) Tin-Tin Quartet - Confrontation - 1994, FLAC (image+.cue), lossless

(Ethnic Jazz) Tin-Tin Quartet - Confrontation - 1994, FLAC (image+.cue), lossless
Треклист:
TIN-TIN QUARTET / CONFRONTATION
Жанр: Ethnic Jazz
Страна-производитель диска: Hungary
Год издания: 1994
Издатель (лейбл): Ananda Sounds
Номер по каталогу: ASCD 033
Аудиокодек: FLAC (*.flac)
Тип рипа: image+.cue
Битрейт аудио: lossless
Продолжительность: 71:15
Источник (релизер): собственный рип
Наличие сканов в содержимом раздачи: да
Треклист:
1 Tavaszi teker - Winding in Spring 13:19
2 Pa-Pa-Hú 9:35
3 Szaggatott Vonalak 14:23
4 Vegtelen Szalag 5:55
5 Utkozes 11:02
6 IBI-ABA 13:08
7 Gagaku 3:54
Borlai Gergely - percussions, bells, marimba
Juhász Gábor - guitar, anklung
Monori András - kaval, nay, sansa, guitar
Szőke Szabolcs - gadulka, kalimba
Feat.
Federico Sanesi - tabla, percussion (6)
 
Лог создания рипа
Exact Audio Copy V1.0 beta 3 from 29. August 2011
Отчёт EAC об извлечении, выполненном 2. октября 2012, 23:42
TIN-TIN QUARTET / Confrontation
Дисковод: Optiarc DVD RW AD-7530B Adapter: 1 ID: 0
Режим чтения : Достоверность
Использование точного потока : Да
Отключение кэша аудио : Да
Использование указателей C2 : Нет
Коррекция смещения при чтении : 6
Способность читать области Lead-in и Lead-out : Нет
Заполнение пропущенных сэмплов тишиной : Да
Удаление блоков с тишиной в начале и конце : Нет
При вычислениях CRC использовались нулевые сэмплы : Да
Интерфейс : Установленный внешний ASPI-интерфейс
Выходной формат : Пользовательский кодировщик
Выбранный битрейт : 896 kBit/s
Качество : Высокий
Добавление ID3-тега : Нет
Утилита сжатия : C:\Program Files\Exact Audio Copy\Flac\flac.exe
Дополнительные параметры : -V -8 -T "Date=%year%" -T "Genre=%genre%" %source%
TOC извлечённого CD
Трек | Старт | Длительность | Начальный сектор | Конечный сектор
---------------------------------------------------------------------
1 | 0:00.00 | 13:19.31 | 0 | 59955
2 | 13:19.31 | 9:34.41 | 59956 | 103046
3 | 22:53.72 | 14:23.10 | 103047 | 167781
4 | 37:17.07 | 5:54.46 | 167782 | 194377
5 | 43:11.53 | 11:01.65 | 194378 | 244017
6 | 54:13.43 | 13:07.67 | 244018 | 303109
7 | 67:21.35 | 3:54.06 | 303110 | 320665
Характеристики диапазона извлечения и сообщения об ошибках
Выбранный диапазон
Имя файла F:\Новая папка (34)\Tin-Tin Quartet-Confrontation (1994)\TIN-TIN QUARTET - Confrontation.wav
Пиковый уровень 94.1 %
Скорость извлечения 5.4 X
Качество диапазона 99.9 %
CRC теста 4147160F
CRC копии 4147160F
Копирование... OK
Ошибок не произошло
AccurateRip: сводка
Трек 1 отсутствует в базе данных
Трек 2 отсутствует в базе данных
Трек 3 отсутствует в базе данных
Трек 4 отсутствует в базе данных
Трек 5 отсутствует в базе данных
Трек 6 отсутствует в базе данных
Трек 7 отсутствует в базе данных
Ни одного трека нет в базе AccurateRip
Конец отчёта
==== Контрольная сумма отчёта F2C41DA2F1ABCDC2C96953D7F0A9578AF24B106104F996EC6737489963F3F946 ====
 
Содержание индексной карты (.CUE)
REM GENRE Jazz
REM DATE 1994
REM DISCID 5810B307
REM COMMENT "ExactAudioCopy v1.0b3"
CATALOG 0000000000000
PERFORMER "TIN-TIN QUARTET"
TITLE "Confrontation"
FILE "TIN-TIN QUARTET - Confrontation.flac" WAVE
TRACK 01 AUDIO
TITLE "Tavaszi teker"
PERFORMER "TIN-TIN QUARTET"
ISRC 000000000000
INDEX 01 00:00:00
TRACK 02 AUDIO
TITLE "PA-PA-HU"
PERFORMER "TIN-TIN QUARTET"
ISRC 000000000000
INDEX 01 13:19:31
TRACK 03 AUDIO
TITLE "Szaggatott Vonalak"
PERFORMER "TIN-TIN QUARTET"
ISRC 000000000000
INDEX 01 22:53:72
TRACK 04 AUDIO
TITLE "Vegtelen Szalag"
PERFORMER "TIN-TIN QUARTET"
ISRC 000000000000
INDEX 01 37:17:07
TRACK 05 AUDIO
TITLE "Utkozes"
PERFORMER "TIN-TIN QUARTET"
ISRC 000000000000
INDEX 01 43:11:53
TRACK 06 AUDIO
TITLE "IBI-ABA"
PERFORMER "TIN-TIN QUARTET"
ISRC 000000000000
INDEX 01 54:13:43
TRACK 07 AUDIO
TITLE "GAGAKU"
PERFORMER "TIN-TIN QUARTET"
ISRC 000000000000
INDEX 01 67:21:35
 
Об исполнителе (группе)
Группа была основана в 1994 году с целью поиска и создания определенного вида музыки, с особым звучанием, что может являться общим в различных музыкальных культурах разных народов. Это синтез импровизированной камерной музыки с классической музыкой, а также современным джазом, хотя структуры ритма и мелодии заметно отражают влияние восточно-европейского фольклора и дальневосточных музыкальных культур. Тин-Тин является одним из самых известных этно-джазовых групп в восточной Европе. Их концерты в Венгрии и за рубежом и участия на народных и джазовых фестивалях (Лугано, Милан, Бергамо, Венеции, Агридженто, Марибор, Варшо, Скопье, Амстердам) имели огромные успехи.
 
Об альбоме (сборнике)
Первый альбом этой акустической группы, напоминает музыку Стефана Микуса
05:12
348
Нет комментариев. Ваш будет первым!