Поиск

(Ethnic Jazz, Oriental) [CD] Quintet Silsila - Desert du Thar - 2015, FLAC (tracks+.cue), lossless

(Ethnic Jazz, Oriental) [CD] Quintet Silsila - Desert du Thar - 2015, FLAC (tracks+.cue), lossless
Треклист:
Désert du Thar
Quintet Silsila
Жанр: Ethnic Jazz, Oriental
Страна-производитель диска: France
Год издания: 2015
Издатель (лейбл): Self Production
Аудиокодек: FLAC (*.flac)
Тип рипа: tracks+.cue
Битрейт аудио: lossless
Продолжительность: 41:25
Источник (релизер): спасибо sailmand
Наличие сканов: мелкие
Треклист:
1. Parfum d'Alger
2. Hé Allah Mali
3. Iwa!
4. Istanbul
5. Safa
6. Silsila
7. Varanasi
8. Désert du Thar (Lorène's Song)
 
Лог создания рипа
X Lossless Decoder version 20141129 (148.1)
XLD extraction logfile from 2015-02-06 09:24:00 +0100
Quintet Silsila / Désert du Thar
Used drive : MATSHITA BD-MLT UJ260AF (revision 1.00)
Media type : CD-Recordable
Ripper mode : XLD Secure Ripper
Disable audio cache : OK for the drive with a cache less than 1375KiB
Make use of C2 pointers : NO
Read offset correction : 103
Max retry count : 20
Gap status : Analyzed, Appended (except HTOA)
TOC of the extracted CD
Track | Start | Length | Start sector | End sector
---------------------------------------------------------
1 | 00:00:00 | 05:06:68 | 0 | 23017
2 | 05:06:68 | 03:27:08 | 23018 | 38550
3 | 08:34:01 | 03:10:48 | 38551 | 52848
4 | 11:44:49 | 04:54:25 | 52849 | 74923
5 | 16:38:74 | 06:08:16 | 74924 | 102539
6 | 22:47:15 | 04:38:53 | 102540 | 123442
7 | 27:25:68 | 06:20:14 | 123443 | 151956
8 | 33:46:07 | 07:39:13 | 151957 | 186394
AccurateRip Summary
Disc not found in AccurateRip DB.
All Tracks
Album gain : -7.95 dB
Peak : 0.967621
Statistics
Read error : 0
Jitter error (maybe fixed) : 0
Retry sector count : 0
Damaged sector count : 0
Track 01
Filename : /Users/benoitmars/Downloads/Quintet Silsila - Désert du Thar (2015) [FLAC]/01 - Quintet Silsila - Parfum d'Alger.flac
Pre-gap length : 00:02:00
Track gain : -5.59 dB
Peak : 0.967590
CRC32 hash (test run) : E095CCE6
CRC32 hash : E095CCE6
CRC32 hash (skip zero) : CCA8A022
AccurateRip v1 signature : DE582407
AccurateRip v2 signature : 7BC9AFD8
->Track not present in AccurateRip database.
Statistics
Read error : 0
Jitter error (maybe fixed) : 0
Retry sector count : 0
Damaged sector count : 0
Track 02
Filename : /Users/benoitmars/Downloads/Quintet Silsila - Désert du Thar (2015) [FLAC]/02 - Quintet Silsila - Hé Allah Mali.flac
Track gain : -9.30 dB
Peak : 0.967590
CRC32 hash (test run) : 6F5D4B74
CRC32 hash : 6F5D4B74
CRC32 hash (skip zero) : 1C879EEA
AccurateRip v1 signature : 3127A948
AccurateRip v2 signature : 37E42097
->Track not present in AccurateRip database.
Statistics
Read error : 0
Jitter error (maybe fixed) : 0
Retry sector count : 0
Damaged sector count : 0
Track 03
Filename : /Users/benoitmars/Downloads/Quintet Silsila - Désert du Thar (2015) [FLAC]/03 - Quintet Silsila - Iwa !.flac
Track gain : -7.92 dB
Peak : 0.967621
CRC32 hash (test run) : 297EEC66
CRC32 hash : 297EEC66
CRC32 hash (skip zero) : 15ED3C6B
AccurateRip v1 signature : 666291AA
AccurateRip v2 signature : 6121190E
->Track not present in AccurateRip database.
Statistics
Read error : 0
Jitter error (maybe fixed) : 0
Retry sector count : 0
Damaged sector count : 0
Track 04
Filename : /Users/benoitmars/Downloads/Quintet Silsila - Désert du Thar (2015) [FLAC]/04 - Quintet Silsila - Istanbul.flac
Track gain : -8.18 dB
Peak : 0.967621
CRC32 hash (test run) : C83FB494
CRC32 hash : C83FB494
CRC32 hash (skip zero) : 31898C5A
AccurateRip v1 signature : 50A6B10F
AccurateRip v2 signature : 0B58D564
->Track not present in AccurateRip database.
Statistics
Read error : 0
Jitter error (maybe fixed) : 0
Retry sector count : 0
Damaged sector count : 0
Track 05
Filename : /Users/benoitmars/Downloads/Quintet Silsila - Désert du Thar (2015) [FLAC]/05 - Quintet Silsila - Safa.flac
Track gain : -7.37 dB
Peak : 0.967590
CRC32 hash (test run) : 42FBC429
CRC32 hash : 42FBC429
CRC32 hash (skip zero) : 2056BF89
AccurateRip v1 signature : 6DA75C70
AccurateRip v2 signature : AFC34140
->Track not present in AccurateRip database.
Statistics
Read error : 0
Jitter error (maybe fixed) : 0
Retry sector count : 0
Damaged sector count : 0
Track 06
Filename : /Users/benoitmars/Downloads/Quintet Silsila - Désert du Thar (2015) [FLAC]/06 - Quintet Silsila - Silsila.flac
Track gain : -7.89 dB
Peak : 0.967590
CRC32 hash (test run) : 0FCF4274
CRC32 hash : 0FCF4274
CRC32 hash (skip zero) : 07399E6C
AccurateRip v1 signature : C66E7AD0
AccurateRip v2 signature : 15F728E8
->Track not present in AccurateRip database.
Statistics
Read error : 0
Jitter error (maybe fixed) : 0
Retry sector count : 0
Damaged sector count : 0
Track 07
Filename : /Users/benoitmars/Downloads/Quintet Silsila - Désert du Thar (2015) [FLAC]/07 - Quintet Silsila - Varanasi.flac
Track gain : -7.45 dB
Peak : 0.967590
CRC32 hash (test run) : 0B693BFE
CRC32 hash : 0B693BFE
CRC32 hash (skip zero) : 59A3A61C
AccurateRip v1 signature : 15CA5246
AccurateRip v2 signature : C7161B2B
->Track not present in AccurateRip database.
Statistics
Read error : 0
Jitter error (maybe fixed) : 0
Retry sector count : 0
Damaged sector count : 0
Track 08
Filename : /Users/benoitmars/Downloads/Quintet Silsila - Désert du Thar (2015) [FLAC]/08 - Quintet Silsila - Désert du Thar [Lorène's Song].flac
Track gain : -7.90 dB
Peak : 0.967590
CRC32 hash (test run) : BDA262D5
CRC32 hash : BDA262D5
CRC32 hash (skip zero) : 76066B14
AccurateRip v1 signature : ED19C68E
AccurateRip v2 signature : E828E65B
->Track not present in AccurateRip database.
Statistics
Read error : 0
Jitter error (maybe fixed) : 0
Retry sector count : 0
Damaged sector count : 0
No errors occurred
End of status report
-----BEGIN XLD SIGNATURE-----
DiBTAJehKGqkQ8p7ekLOeFOGnQTmzpD4h3ulcEhd.H6HPTCqaC1Ta3WRfeGg5qSOpQ4QvCryv_8oA22EY9tbgS6EThyu68wDs01D080
-----END XLD SIGNATURE-----
 
Содержание индексной карты (.CUE)
TITLE "Desert du Thar"
PERFORMER "Quintet Silsila"
REM GENRE "Jazz"
REM DATE "2015"
REM DISCID 5809B508
REM REPLAYGAIN_ALBUM_GAIN -7.95 dB
REM REPLAYGAIN_ALBUM_PEAK 0.967621
FILE "01 - Parfum d'Alger.flac" WAVE
TRACK 01 AUDIO
TITLE "Parfum d'Alger"
SONGWRITER "Clement Duthoit"
REM REPLAYGAIN_TRACK_GAIN -5.59 dB
REM REPLAYGAIN_TRACK_PEAK 0.967590
INDEX 01 00:00:00
FILE "02 - He Allah Mali.flac" WAVE
TRACK 02 AUDIO
TITLE "He Allah Mali"
SONGWRITER "Clement Duthoit"
REM REPLAYGAIN_TRACK_GAIN -9.30 dB
REM REPLAYGAIN_TRACK_PEAK 0.967590
INDEX 01 00:00:00
FILE "03 - Iwa!.flac" WAVE
TRACK 03 AUDIO
TITLE "Iwa!"
SONGWRITER "Clement Duthoit"
REM REPLAYGAIN_TRACK_GAIN -7.92 dB
REM REPLAYGAIN_TRACK_PEAK 0.967621
INDEX 01 00:00:00
FILE "04 - Istanbul.flac" WAVE
TRACK 04 AUDIO
TITLE "Istanbul"
SONGWRITER "Clement Duthoit"
REM REPLAYGAIN_TRACK_GAIN -8.18 dB
REM REPLAYGAIN_TRACK_PEAK 0.967621
INDEX 01 00:00:00
FILE "05 - Safa.flac" WAVE
TRACK 05 AUDIO
TITLE "Safa"
SONGWRITER "Clement Duthoit"
REM REPLAYGAIN_TRACK_GAIN -7.37 dB
REM REPLAYGAIN_TRACK_PEAK 0.967590
INDEX 01 00:00:00
FILE "06 - Silsila.flac" WAVE
TRACK 06 AUDIO
TITLE "Silsila"
SONGWRITER "Clement Duthoit"
REM REPLAYGAIN_TRACK_GAIN -7.89 dB
REM REPLAYGAIN_TRACK_PEAK 0.967590
INDEX 01 00:00:00
FILE "07 - Varanasi.flac" WAVE
TRACK 07 AUDIO
TITLE "Varanasi"
SONGWRITER "Clement Duthoit"
REM REPLAYGAIN_TRACK_GAIN -7.45 dB
REM REPLAYGAIN_TRACK_PEAK 0.967590
INDEX 01 00:00:00
FILE "08 - Desert du Thar (Lorene's Song).flac" WAVE
TRACK 08 AUDIO
TITLE "Desert du Thar (Lorene's Song)"
SONGWRITER "Clement Duthoit"
REM REPLAYGAIN_TRACK_GAIN -7.90 dB
REM REPLAYGAIN_TRACK_PEAK 0.967590
INDEX 01 00:00:00
 
Состав
Clément Duthoit - saxophones
Zied Zouari - violin
Nicolas Arnault - piano
Shankar Kirpalani - double bass
Pierre Rigopoulos - percussion
17:37
317
Нет комментариев. Ваш будет первым!