Поиск

(Ethnic Jazz) Mulatu Astatke - Mulatu Steps Ahead - 2010, FLAC (tracks+.cue), lossless

Треклист:
Mulatu Astatke - Mulatu Steps Ahead
Жанр: Ethnic Jazz | Год выпуска диска: 2010 | Производитель диска: USA | Аудио кодек: FLAC
Тип рипа: tracks+.cue | Битрейт аудио: lossless | Продолжительность: 00:48:56 | Источник: what.cd (Flabbergast)
Трэклист:
01. Radcliffe [07:52]
02. Green Africa [05:12]
03. The Way To Nice [05:07]
04. Assosa [02:37]
05. I Faram Gami I Faram [05:31]
06. Mulatu's Mood [05:54]
07. Ethio Blues [06:58]
08. Boogaloo [05:15]
09. Motherland [04:27]





 
.log
Exact Audio Copy V0.99 prebeta 5 from 4. May 2009
EAC extraction logfile from 8. April 2010, 17:59
Mulatu Astatke / Mulatu Steps Ahead
Used drive : PLEXTOR DVDR PX-880SA Adapter: 0 ID: 0
Read mode : Secure
Utilize accurate stream : Yes
Defeat audio cache : Yes
Make use of C2 pointers : No
Read offset correction : 6
Overread into Lead-In and Lead-Out : No
Fill up missing offset samples with silence : Yes
Delete leading and trailing silent blocks : No
Null samples used in CRC calculations : Yes
Used interface : Native Win32 interface for Win NT & 2000
Gap handling : Appended to previous track
Used output format : User Defined Encoder
Selected bitrate : 896 kBit/s
Quality : High
Add ID3 tag : No
Command line compressor : C:\Program Files (x86)\Exact Audio Copy\Flac\flac.exe
Additional command line options : -8 -V -T "ARTIST=%a" -T "TITLE=%t" -T "ALBUM=%g" -T "DATE=%y" -T "TRACKNUMBER=%n" -T "TOTALTRACKS=%x" -T "GENRE=%m" -T "ALBUM ARTIST=%v" -T "ALBUMARTIST=%v" -T "COMMENT=EAC V0.99 prebeta 5, Secure Mode, Test & Copy, Accurat
TOC of the extracted CD
Track | Start | Length | Start sector | End sector
---------------------------------------------------------
1 | 0:00.00 | 7:54.27 | 0 | 35576
2 | 7:54.27 | 5:13.58 | 35577 | 59109
3 | 13:08.10 | 5:09.28 | 59110 | 82312
4 | 18:17.38 | 2:39.03 | 82313 | 94240
5 | 20:56.41 | 5:33.30 | 94241 | 119245
6 | 26:29.71 | 5:56.40 | 119246 | 145985
7 | 32:26.36 | 7:02.07 | 145986 | 177642
8 | 39:28.43 | 5:19.12 | 177643 | 201579
9 | 44:47.55 | 4:27.08 | 201580 | 221612
Track 1
Filename C:\FLAC EAC\01 - Radcliffe.wav
Pre-gap length 0:00:02.00
Peak level 85.1 %
Track quality 100.0 %
Test CRC 41C95CC5
Copy CRC 41C95CC5
Track not present in AccurateRip database
Copy OK
Track 2
Filename C:\FLAC EAC\02 - Green Africa.wav
Pre-gap length 0:00:01.77
Peak level 98.8 %
Track quality 100.0 %
Test CRC 276DAA75
Copy CRC 276DAA75
Track not present in AccurateRip database
Copy OK
Track 3
Filename C:\FLAC EAC\03 - The Way To Nice.wav
Pre-gap length 0:00:01.77
Peak level 98.8 %
Track quality 100.0 %
Test CRC 05C75588
Copy CRC 05C75588
Track not present in AccurateRip database
Copy OK
Track 4
Filename C:\FLAC EAC\04 - Assosa.wav
Pre-gap length 0:00:02.25
Peak level 98.8 %
Track quality 99.9 %
Test CRC 39C29A2F
Copy CRC 39C29A2F
Track not present in AccurateRip database
Copy OK
Track 5
Filename C:\FLAC EAC\05 - I Faram Gami I Faram.wav
Pre-gap length 0:00:01.77
Peak level 98.8 %
Track quality 99.9 %
Test CRC AAEA8B1F
Copy CRC AAEA8B1F
Track not present in AccurateRip database
Copy OK
Track 6
Filename C:\FLAC EAC\06 - Mulatu's Mood.wav
Pre-gap length 0:00:01.69
Peak level 98.8 %
Track quality 100.0 %
Test CRC 3B9D8C7F
Copy CRC 3B9D8C7F
Track not present in AccurateRip database
Copy OK
Track 7
Filename C:\FLAC EAC\07 - Ethio Blues.wav
Pre-gap length 0:00:02.01
Peak level 98.8 %
Track quality 100.0 %
Test CRC DFFEC64E
Copy CRC DFFEC64E
Track not present in AccurateRip database
Copy OK
Track 8
Filename C:\FLAC EAC\08 - Boogaloo.wav
Pre-gap length 0:00:03.24
Peak level 98.8 %
Track quality 100.0 %
Test CRC F871ADED
Copy CRC F871ADED
Track not present in AccurateRip database
Copy OK
Track 9
Filename C:\FLAC EAC\09 - Motherland.wav
Pre-gap length 0:00:03.53
Peak level 98.8 %
Track quality 100.0 %
Test CRC BA3BE08B
Copy CRC BA3BE08B
Track not present in AccurateRip database
Copy OK
None of the tracks are present in the AccurateRip database
No errors occurred
End of status report
 
.cue
REM GENRE Ethiopia
REM DISCID 910B8A09
REM COMMENT "ExactAudioCopy v0.99pb5"
PERFORMER "Mulatu Astatke"
TITLE "Mulatu Steps Ahead"
FILE "01 - Radcliffe.wav" WAVE
TRACK 01 AUDIO
TITLE "Radcliffe"
PERFORMER "Mulatu Astatke"
INDEX 01 00:00:00
TRACK 02 AUDIO
TITLE "Green Africa"
PERFORMER "Mulatu Astatke"
INDEX 00 07:52:44
FILE "02 - Green Africa.wav" WAVE
INDEX 01 00:00:00
TRACK 03 AUDIO
TITLE "The Way To Nice"
PERFORMER "Mulatu Astatke"
INDEX 00 05:12:00
FILE "03 - The Way To Nice.wav" WAVE
INDEX 01 00:00:00
TRACK 04 AUDIO
TITLE "Assosa"
PERFORMER "Mulatu Astatke"
INDEX 00 05:07:09
FILE "04 - Assosa.wav" WAVE
INDEX 01 00:00:00
TRACK 05 AUDIO
TITLE "I Faram Gami I Faram"
PERFORMER "Mulatu Astatke"
INDEX 00 02:37:20
FILE "05 - I Faram Gami I Faram.wav" WAVE
INDEX 01 00:00:00
TRACK 06 AUDIO
TITLE "Mulatu's Mood"
PERFORMER "Mulatu Astatke"
INDEX 00 05:31:53
FILE "06 - Mulatu's Mood.wav" WAVE
INDEX 01 00:00:00
TRACK 07 AUDIO
TITLE "Ethio Blues"
PERFORMER "Mulatu Astatke"
INDEX 00 05:54:39
FILE "07 - Ethio Blues.wav" WAVE
INDEX 01 00:00:00
TRACK 08 AUDIO
TITLE "Boogaloo"
PERFORMER "Mulatu Astatke"
INDEX 00 06:58:64
FILE "08 - Boogaloo.wav" WAVE
INDEX 01 00:00:00
TRACK 09 AUDIO
TITLE "Motherland"
PERFORMER "Mulatu Astatke"
INDEX 00 05:15:47
FILE "09 - Motherland.wav" WAVE
INDEX 01 00:00:00
 
audiochecker
AUDIOCHECKER v1.2 - by Dester - opdester@freemail.hu
~~~~~~~~~~~~~~~~~
1 -===- D:\Music\Mulatu Astatke\[2010] Mulatu Steps Ahead (Lossless)\01 - Radcliffe.flac
Extracted successfully
Conclusion: This track looks like CDDA with probability 100%
2 -===- D:\Music\Mulatu Astatke\[2010] Mulatu Steps Ahead (Lossless)\02 - Green Africa.flac
Extracted successfully
Conclusion: This track looks like CDDA with probability 100%
3 -===- D:\Music\Mulatu Astatke\[2010] Mulatu Steps Ahead (Lossless)\03 - The Way To Nice.flac
Extracted successfully
Conclusion: This track looks like CDDA with probability 99%
4 -===- D:\Music\Mulatu Astatke\[2010] Mulatu Steps Ahead (Lossless)\04 - Assosa.flac
Extracted successfully
Conclusion: This track looks like CDDA with probability 100%
5 -===- D:\Music\Mulatu Astatke\[2010] Mulatu Steps Ahead (Lossless)\05 - I Faram Gami I Faram.flac
Extracted successfully
Conclusion: This track looks like CDDA with probability 100%
6 -===- D:\Music\Mulatu Astatke\[2010] Mulatu Steps Ahead (Lossless)\06 - Mulatu's Mood.flac
Extracted successfully
Conclusion: This track looks like CDDA with probability 100%
7 -===- D:\Music\Mulatu Astatke\[2010] Mulatu Steps Ahead (Lossless)\07 - Ethio Blues.flac
Extracted successfully
Conclusion: This track looks like CDDA with probability 100%
8 -===- D:\Music\Mulatu Astatke\[2010] Mulatu Steps Ahead (Lossless)\08 - Boogaloo.flac
Extracted successfully
Conclusion: This track looks like CDDA with probability 100%
9 -===- D:\Music\Mulatu Astatke\[2010] Mulatu Steps Ahead (Lossless)\09 - Motherland.flac
Extracted successfully
Conclusion: This track looks like CDDA with probability 100%

15:01
707
Нет комментариев. Ваш будет первым!