Поиск

(Ethnic Jazz, Latin Jazz) Astrud Gilberto - Jungle - 2002, FLAC (tracks+.cue), lossless

(Ethnic Jazz, Latin Jazz) Astrud Gilberto - Jungle - 2002, FLAC (tracks+.cue), lossless
Треклист:
•Astrud Gilberto - Jungle•
Жанр: Ethnic Jazz, Latin Jazz
Страна-производитель диска: Japan
Год издания диска: 2002
Издатель (лейбл): Magya Japan
Номер по каталогу:COCB-53131
Аудиокодек: FLAC (*.flac)
Тип рипа: tracks+.cue
Битрейт аудио: lossless
Продолжительность: 00:51:11
Источник (релизер): mishka1981
Наличие сканов в содержимом раздачи: да
Треклист:
01. Jungle (Xangô)
02. É Só Me Pedir
03. Ocean Dreams
04. In Spite of the Odds
05. Xaxado do Safado
06. Como Fué
07. Red Umbrella
08. Rebola, bola
09. Dancing
10. Pink House
11. Inner Song
12. The Look of Love
Personnel:
Astrud Gilberto (voc) Mark Lambert (g) and others
 
Лог создания рипа
Exact Audio Copy V1.0 beta 1 from 15. November 2010
EAC extraction logfile from 20. January 2012, 14:32
Astrud Gilberto / Jungle
Used drive : TSSTcorpCDDVDW TS-L633A Adapter: 3 ID: 0
Read mode : Secure
Utilize accurate stream : Yes
Defeat audio cache : Yes
Make use of C2 pointers : No
Read offset correction : 6
Overread into Lead-In and Lead-Out : No
Fill up missing offset samples with silence : Yes
Delete leading and trailing silent blocks : No
Null samples used in CRC calculations : Yes
Used interface : Installed external ASPI interface
Gap handling : Appended to previous track
Used output format : User Defined Encoder
Selected bitrate : 896 kBit/s
Quality : High
Add ID3 tag : No
Command line compressor : C:\Program Files\Exact Audio Copy\FLAC\FLAC.EXE
Additional command line options : -8 -V -T "ARTIST=%a" -T "TITLE=%t" -T "ALBUM=%g" -T "DATE=%y" -T "TRACKNUMBER=%n" -T "TOTALTRACKS=%x" -T "GENRE=%m" -T "ALBUMARTIST=%v" -T "ALBUM ARTIST=%v" -T "COMMENT=EAC Secure Mode, Test & Copy, AccurateRip, FLAC -8" %s
TOC of the extracted CD
Track | Start | Length | Start sector | End sector
---------------------------------------------------------
1 | 0:00.00 | 4:09.22 | 0 | 18696
2 | 4:09.22 | 5:06.00 | 18697 | 41646
3 | 9:15.22 | 4:33.00 | 41647 | 62121
4 | 13:48.22 | 4:46.55 | 62122 | 83626
5 | 18:35.02 | 3:43.20 | 83627 | 100371
6 | 22:18.22 | 3:42.62 | 100372 | 117083
7 | 26:01.09 | 3:54.11 | 117084 | 134644
8 | 29:55.20 | 4:26.56 | 134645 | 154650
9 | 34:22.01 | 4:30.32 | 154651 | 174932
10 | 38:52.33 | 3:13.67 | 174933 | 189474
11 | 42:06.25 | 3:50.09 | 189475 | 206733
12 | 45:56.34 | 5:14.46 | 206734 | 230329
Track 1
Filename C:\MY RIPS\01 - Jungle (Xango).wav
Pre-gap length 0:00:02.00
Peak level 98.8 %
Extraction speed 1.1 X
Track quality 100.0 %
Test CRC 50DE044C
Copy CRC 50DE044C
Cannot be verified as accurate (confidence 2) [384D70C0], AccurateRip returned [616B8870]
Copy OK
Track 2
Filename C:\MY RIPS\02 - E So Me Pedir.wav
Pre-gap length 0:00:01.15
Peak level 98.8 %
Extraction speed 1.3 X
Track quality 100.0 %
Test CRC 93F51E11
Copy CRC 93F51E11
Cannot be verified as accurate (confidence 2) [47F0ABED], AccurateRip returned [903B40F3]
Copy OK
Track 3
Filename C:\MY RIPS\03 - Ocean Dreams.wav
Peak level 98.8 %
Extraction speed 1.4 X
Track quality 100.0 %
Test CRC BEBF8AED
Copy CRC BEBF8AED
Cannot be verified as accurate (confidence 2) [4120E147], AccurateRip returned [EB2A05C5]
Copy OK
Track 4
Filename C:\MY RIPS\04 - In Spite of the Odds.wav
Pre-gap length 0:00:01.06
Peak level 98.8 %
Extraction speed 1.5 X
Track quality 100.0 %
Test CRC 00752AE7
Copy CRC 00752AE7
Cannot be verified as accurate (confidence 2) [8C0DCC34], AccurateRip returned [4E7728C8]
Copy OK
Track 5
Filename C:\MY RIPS\05 - Xaxado do Safado.wav
Pre-gap length 0:00:01.33
Peak level 98.8 %
Extraction speed 1.6 X
Track quality 100.0 %
Test CRC 7F7A55E8
Copy CRC 7F7A55E8
Cannot be verified as accurate (confidence 2) [1E67D793], AccurateRip returned [E0797077]
Copy OK
Track 6
Filename C:\MY RIPS\06 - Como Fue.wav
Peak level 98.8 %
Extraction speed 1.2 X
Track quality 99.9 %
Test CRC 8827DDEA
Copy CRC 8827DDEA
Cannot be verified as accurate (confidence 2) [825F49D1], AccurateRip returned [D91B4EB9]
Copy OK
Track 7
Filename C:\MY RIPS\07 - Red Umbrella.wav
Pre-gap length 0:00:01.49
Peak level 98.8 %
Extraction speed 1.8 X
Track quality 100.0 %
Test CRC 3931B475
Copy CRC 3931B475
Cannot be verified as accurate (confidence 2) [42D194C1], AccurateRip returned [BC15DFB9]
Copy OK
Track 8
Filename C:\MY RIPS\08 - Rebola, bola.wav
Pre-gap length 0:00:02.32
Peak level 98.8 %
Extraction speed 1.8 X
Track quality 100.0 %
Test CRC DE6F810A
Copy CRC DE6F810A
Cannot be verified as accurate (confidence 2) [2F1E6FA4], AccurateRip returned [74D798F4]
Copy OK
Track 9
Filename C:\MY RIPS\09 - Dancing.wav
Pre-gap length 0:00:01.48
Peak level 98.8 %
Extraction speed 2.0 X
Track quality 100.0 %
Test CRC 59BFB10A
Copy CRC 59BFB10A
Cannot be verified as accurate (confidence 2) [AE412031], AccurateRip returned [0D4ECF91]
Copy OK
Track 10
Filename C:\MY RIPS\10 - Pink House.wav
Peak level 98.8 %
Extraction speed 1.9 X
Track quality 100.0 %
Test CRC A8191A42
Copy CRC A8191A42
Cannot be verified as accurate (confidence 2) [129135E6], AccurateRip returned [0C6F6C02]
Copy OK
Track 11
Filename C:\MY RIPS\11 - Inner Song.wav
Pre-gap length 0:00:02.12
Peak level 98.8 %
Extraction speed 1.4 X
Track quality 99.9 %
Test CRC CF70F209
Copy CRC CF70F209
Cannot be verified as accurate (confidence 2) [A136D53F], AccurateRip returned [0055204B]
Copy OK
Track 12
Filename C:\MY RIPS\12 - The Look of Love.wav
Pre-gap length 0:00:02.01
Peak level 100.0 %
Extraction speed 2.2 X
Track quality 100.0 %
Test CRC 00C62E90
Copy CRC 00C62E90
Cannot be verified as accurate (confidence 2) [6C11EF85], AccurateRip returned [DAD98031]
Copy OK
No tracks could be verified as accurate
You may have a different pressing from the one(s) in the database
No errors occurred
End of status report
==== Log checksum B508716EE78B77889684827CBDBFEC6850E7FDD8C3016D1BAA88F92DBC2C45DB ====
 
Содержание индексной карты (.CUE)
REM GENRE Other
REM DATE 2002
REM DISCID 9E0BFF0C
REM COMMENT "ExactAudioCopy v1.0b1"
PERFORMER "Astrud Gilberto"
TITLE "Jungle"
FILE "01 - Jungle (Xango).wav" WAVE
TRACK 01 AUDIO
TITLE "Jungle (Xango)"
PERFORMER "Astrud Gilberto"
INDEX 01 00:00:00
TRACK 02 AUDIO
TITLE "E So Me Pedir"
PERFORMER "Astrud Gilberto"
INDEX 00 04:08:07
FILE "02 - E So Me Pedir.wav" WAVE
INDEX 01 00:00:00
FILE "03 - Ocean Dreams.wav" WAVE
TRACK 03 AUDIO
TITLE "Ocean Dreams"
PERFORMER "Astrud Gilberto"
INDEX 01 00:00:00
TRACK 04 AUDIO
TITLE "In Spite of the Odds"
PERFORMER "Astrud Gilberto"
INDEX 00 04:31:69
FILE "04 - In Spite of the Odds.wav" WAVE
INDEX 01 00:00:00
TRACK 05 AUDIO
TITLE "Xaxado do Safado"
PERFORMER "Astrud Gilberto"
INDEX 00 04:45:22
FILE "05 - Xaxado do Safado.wav" WAVE
INDEX 01 00:00:00
FILE "06 - Como Fue.wav" WAVE
TRACK 06 AUDIO
TITLE "Como Fue"
PERFORMER "Astrud Gilberto"
INDEX 01 00:00:00
TRACK 07 AUDIO
TITLE "Red Umbrella"
PERFORMER "Astrud Gilberto"
INDEX 00 03:41:13
FILE "07 - Red Umbrella.wav" WAVE
INDEX 01 00:00:00
TRACK 08 AUDIO
TITLE "Rebola, bola"
PERFORMER "Astrud Gilberto"
INDEX 00 03:51:54
FILE "08 - Rebola, bola.wav" WAVE
INDEX 01 00:00:00
TRACK 09 AUDIO
TITLE "Dancing"
PERFORMER "Astrud Gilberto"
INDEX 00 04:25:08
FILE "09 - Dancing.wav" WAVE
INDEX 01 00:00:00
FILE "10 - Pink House.wav" WAVE
TRACK 10 AUDIO
TITLE "Pink House"
PERFORMER "Astrud Gilberto"
INDEX 01 00:00:00
TRACK 11 AUDIO
TITLE "Inner Song"
PERFORMER "Astrud Gilberto"
INDEX 00 03:11:55
FILE "11 - Inner Song.wav" WAVE
INDEX 01 00:00:00
TRACK 12 AUDIO
TITLE "The Look of Love"
PERFORMER "Astrud Gilberto"
INDEX 00 03:48:08
FILE "12 - The Look of Love.wav" WAVE
INDEX 01 00:00:00
02:13
315
Нет комментариев. Ваш будет первым!