Поиск

(Ethnic jazz) Kazu Matsui - Tribal Mozart - 1997, APE (image+.cue), lossless

Треклист:
Kazu Matsui - Tribal Mozart
Жанр: Ethnic jazz
Год выпуска диска: 1997
Производитель диска: Japan
Аудио кодек: APE
Тип рипа: image+.cue
Битрейт аудио: lossless
Продолжительность: 53:13
Трэклист:
01. Kilamanjaro In B Flat - 4:22
02. C Minor For The Orcas - 4:28
03. Circle Dance, E Flat - 4:26
04. G Minor Over The Mosques - 4:04
05. Savannah In D Major - 5:19
06. Tribal Mozart - 4:16
07. Rainy G Minor - 4:12
08. D Major Into The Forest - 4:18
09. Through The Grasses With B Flat - 4:33
10. Amadeus In The Mist - 4:58
11. Tribal Mozart - piano solo - 2:53
12. Amadeus In The Mist - piano solo - 2:31
13. Rainy G Minor - piano solo - 2:46
Доп.информация: solo piano - Keiko Matsui
 
лог
Exact Audio Copy V0.99 prebeta 3 from 28. July 2007
EAC extraction logfile from 20. October 2007, 5:52
Kazu Matsui / Tribal Mozart
Used drive : HL-DT-STDVDRAM GSA-4163B Adapter: 3 ID: 1
Read mode : Secure
Utilize accurate stream : Yes
Defeat audio cache : Yes
Make use of C2 pointers : No
Read offset correction : 667
Overread into Lead-In and Lead-Out : No
Fill up missing offset samples with silence : Yes
Delete leading and trailing silent blocks : No
Null samples used in CRC calculations : Yes
Used interface : Installed external ASPI interface
Used output format : Internal WAV Routines
Sample format : 44.100 Hz; 16 Bit; Stereo
TOC of the extracted CD
Track | Start | Length | Start sector | End sector
---------------------------------------------------------
1 | 0:00.00 | 4:22.65 | 0 | 19714
2 | 4:22.65 | 4:28.10 | 19715 | 39824
3 | 8:51.00 | 4:26.65 | 39825 | 59839
4 | 13:17.65 | 4:04.22 | 59840 | 78161
5 | 17:22.12 | 5:19.30 | 78162 | 102116
6 | 22:41.42 | 4:16.53 | 102117 | 121369
7 | 26:58.20 | 4:12.32 | 121370 | 140301
8 | 31:10.52 | 4:18.58 | 140302 | 159709
9 | 35:29.35 | 4:33.35 | 159710 | 180219
10 | 40:02.70 | 4:58.70 | 180220 | 202639
11 | 45:01.65 | 2:53.60 | 202640 | 215674
12 | 47:55.50 | 2:31.00 | 215675 | 226999
13 | 50:26.50 | 2:46.50 | 227000 | 239499
Range status and errors
Selected range
Filename D:\KazuTM\Kazu Matsui - Tribal Mozart.wav
Peak level 99.0 %
Range quality 100.0 %
Copy CRC 00C37F35
Copy OK
No errors occurred
AccurateRip summary
Track 1 not present in database
Track 2 not present in database
Track 3 not present in database
Track 4 not present in database
Track 5 not present in database
Track 6 not present in database
Track 7 not present in database
Track 8 not present in database
Track 9 not present in database
Track 10 not present in database
Track 11 not present in database
Track 12 not present in database
Track 13 not present in database
None of the tracks are present in the AccurateRip database
End of status report
03:07
253
Нет комментариев. Ваш будет первым!