Поиск

(ethnic jazz) John Hollenbeck - Quartet Lucy - 2001, FLAC (image+.cue), lossless

Треклист:
John Hollenbeck / Quartet Lucy
Жанр: ethnic jazz
Страна-производитель диска: USA
Год издания диска: 2001
Издатель (лейбл): Composers Recordings
Страна: USA
Аудиокодек: FLAC (*.flac)
Тип рипа: image+.cue
Битрейт аудио: lossless
Продолжительность: 49:34
Источник (релизер): собственный рип
Наличие сканов в содержимом раздачи: да
Треклист:
1. Vanishing Lucy
2. Ethet
3. Forevas
4. Maternas
5. Dreams for tomorrow
6. Constant Conversatione
7. Chapel file
8. Jazz envy
9. Vira-folha
10. The Music of Life
 
Лог создания рипа
Exact Audio Copy V0.99 prebeta 5 from 4. May 2009
EAC extraction logfile from 19. January 2011, 22:33
John Hollenbeck / Quartet Lucy
Used drive : Optiarc DVD RW AD-7243S Adapter: 0 ID: 1
Read mode : Secure
Utilize accurate stream : Yes
Defeat audio cache : Yes
Make use of C2 pointers : No
Read offset correction : 48
Overread into Lead-In and Lead-Out : No
Fill up missing offset samples with silence : Yes
Delete leading and trailing silent blocks : No
Null samples used in CRC calculations : Yes
Used interface : Native Win32 interface for Win NT & 2000
Used output format : User Defined Encoder
Selected bitrate : 768 kBit/s
Quality : High
Add ID3 tag : No
Command line compressor : C:\Program Files\Exact Audio Copy\FLAC\FLAC.EXE
Additional command line options : -6 -V -T "ARTIST=%a" -T "TITLE=%t" -T "ALBUM=%g" -T "DATE=%y" -T "TRACKNUMBER=%n" -T "GENRE=%m" -T "COMMENT=%e" %s -o %d
TOC of the extracted CD
Track | Start | Length | Start sector | End sector
---------------------------------------------------------
1 | 0:00.00 | 2:55.37 | 0 | 13161
2 | 2:55.37 | 3:14.25 | 13162 | 27736
3 | 6:09.62 | 6:52.35 | 27737 | 58671
4 | 13:02.22 | 5:09.13 | 58672 | 81859
5 | 18:11.35 | 3:35.62 | 81860 | 98046
6 | 21:47.22 | 8:35.20 | 98047 | 136691
7 | 30:22.42 | 6:04.68 | 136692 | 164059
8 | 36:27.35 | 4:21.17 | 164060 | 183651
9 | 40:48.52 | 4:30.03 | 183652 | 203904
10 | 45:18.55 | 4:15.65 | 203905 | 223094
Range status and errors
Selected range
Filename C:\Documents and Settings\S\Мои документы\Torrent раздача\John Hollenbeck - Quartet Lucy.wav
Peak level 100.0 %
Range quality 100.0 %
Test CRC E43F2D67
Copy CRC E43F2D67
Copy OK
No errors occurred
AccurateRip summary
Track 1 accurately ripped (confidence 1) [B03560E1]
Track 2 accurately ripped (confidence 1) [C35965C1]
Track 3 accurately ripped (confidence 1) [7057A8CF]
Track 4 accurately ripped (confidence 1) [05515810]
Track 5 accurately ripped (confidence 1) [094785EC]
Track 6 accurately ripped (confidence 1) [F22210BF]
Track 7 accurately ripped (confidence 1) [CE0589BB]
Track 8 accurately ripped (confidence 1) [3C114534]
Track 9 accurately ripped (confidence 1) [BC79ACEF]
Track 10 accurately ripped (confidence 1) [871A199A]
All tracks accurately ripped
End of status report
 
Содержание индексной карты (.CUE)
REM GENRE Jazz
REM DATE 2001
REM DISCID 820B9E0A
REM COMMENT "ExactAudioCopy v0.99pb5"
PERFORMER "John Hollenbeck"
TITLE "Quartet Lucy"
FILE "John Hollenbeck - Quartet Lucy.flac" WAVE
TRACK 01 AUDIO
TITLE "Vanishing Lucy"
PERFORMER "John Hollenbeck"
INDEX 01 00:00:00
TRACK 02 AUDIO
TITLE "ethel"
PERFORMER "John Hollenbeck"
INDEX 00 02:52:40
INDEX 01 02:55:37
TRACK 03 AUDIO
TITLE "Foreva"
PERFORMER "John Hollenbeck"
INDEX 01 06:09:62
TRACK 04 AUDIO
TITLE "materna"
PERFORMER "John Hollenbeck"
INDEX 00 12:57:15
INDEX 01 13:02:22
TRACK 05 AUDIO
TITLE "dreams for tomorrow"
PERFORMER "John Hollenbeck"
INDEX 01 18:11:35
TRACK 06 AUDIO
TITLE "constant conversations"
PERFORMER "John Hollenbeck"
INDEX 00 21:44:07
INDEX 01 21:47:22
TRACK 07 AUDIO
TITLE "Chapel flies"
PERFORMER "John Hollenbeck"
INDEX 00 30:16:70
INDEX 01 30:22:42
TRACK 08 AUDIO
TITLE "jazz envy"
PERFORMER "John Hollenbeck"
INDEX 00 36:20:50
INDEX 01 36:27:35
TRACK 09 AUDIO
TITLE "Vira-folha"
PERFORMER "John Hollenbeck"
INDEX 00 40:44:70
INDEX 01 40:48:52
TRACK 10 AUDIO
TITLE "The Music Of Life"
PERFORMER "John Hollenbeck"
INDEX 00 45:13:10
INDEX 01 45:18:55
 
Состав
John Hollenbeck - drums, percussion, piano, composition, berimbau
Theo Bleckmann - voice, piano
Dan Wills - english horn, sax, flute
skull Sverrison - bas, bajo sexto
Jonas Tauber - cello
22:17
245
Нет комментариев. Ваш будет первым!