Поиск

(Ethnic Jazz, Jazz Modern Creative, Klezmer) [CD] Meadow Quartet - Unexpected - 2012, FLAC (tracks+.cue), lossless

(Ethnic Jazz, Jazz Modern Creative, Klezmer) [CD] Meadow Quartet - Unexpected - 2012, FLAC (tracks+.cue), lossless
Треклист:
Meadow Quartet / Unexpected
Жанр: Ethnic Jazz, Jazz Modern Creative, Klezmer Jazz
Носитель: CD
Год издания: 2012
Издатель (лейбл): Multikulti
Номер по каталогу: MPT007
Страна: Poland
Аудиокодек: FLAC (*.flac)
Тип рипа: tracks+.cue
Битрейт аудио: lossless
Продолжительность: 45:14 min
Источник (релизер): kivius (dcdnet.ru)
Наличие сканов в содержимом раздачи: нет
Треклист:
1. Das Schloss (A Tribute to F.Kafka). 5:19
2. Goldene Medina. 7:09
3. Nature's Tool. 4:05
4. Le Printemps. 4:18
5. L'automne. 5:15
6. Immersion. 8:17
7. Form No.1. 5:33
8. Extinct. 5:18
 
Лог создания рипа
Exact Audio Copy V1.0 beta 3 from 29. August 2011
EAC extraction logfile from 15. August 2013, 2:40
Meadow Quartet / Unexpected
Used drive : TSSTcorpCDDVDW SE-208DB Adapter: 2 ID: 0
Read mode : Secure
Utilize accurate stream : Yes
Defeat audio cache : Yes
Make use of C2 pointers : No
Read offset correction : 6
Overread into Lead-In and Lead-Out : No
Fill up missing offset samples with silence : Yes
Delete leading and trailing silent blocks : No
Null samples used in CRC calculations : Yes
Used interface : Native Win32 interface for Win NT & 2000
Gap handling : Appended to previous track
Used output format : User Defined Encoder
Selected bitrate : 1024 kBit/s
Quality : High
Add ID3 tag : No
Command line compressor : C:\Program Files (x86)\Exact Audio Copy\FLAC\FLAC.EXE
Additional command line options : -8 -V -T "ARTIST=%artist%" -T "TITLE=%title%" -T "ALBUM=%albumtitle%" -T "DATE=%year%" -T "TRACKNUMBER=%tracknr%" -T "GENRE=%genre%" -T "PERFORMER=%albuminterpret%" -T "COMPOSER=%composer%" %haslyrics%--tag-from-file=LYRICS="%lyricsfile%"%haslyrics% -T "ALBUMARTIST=%albumartist%" -T "DISCNUMBER=%cdnumber%" -T "TOTALDISCS=%totalcds%" -T "TOTALTRACKS=%numtracks%" -T "COMMENT=%comment%" %source% -o %dest%
TOC of the extracted CD
Track | Start | Length | Start sector | End sector
---------------------------------------------------------
1 | 0:00.00 | 5:19.21 | 0 | 23945
2 | 5:19.21 | 7:09.19 | 23946 | 56139
3 | 12:28.40 | 4:05.10 | 56140 | 74524
4 | 16:33.50 | 4:18.22 | 74525 | 93896
5 | 20:51.72 | 5:14.40 | 93897 | 117486
6 | 26:06.37 | 8:16.62 | 117487 | 154748
7 | 34:23.24 | 5:33.11 | 154749 | 179734
8 | 39:56.35 | 5:17.60 | 179735 | 203569
Track 1
Filename W:\_MUSIC ALL\Meadow Quartet - Unexpected (2012) [FLAC]\01. Das Schloss. A tribute to F. Kafka.wav
Pre-gap length 0:00:02.00
Peak level 100.0 %
Extraction speed 2.7 X
Track quality 100.0 %
Test CRC 30C85405
Copy CRC 30C85405
Track not present in AccurateRip database
Copy OK
Track 2
Filename W:\_MUSIC ALL\Meadow Quartet - Unexpected (2012) [FLAC]\02. Goldene Medina.wav
Peak level 98.7 %
Extraction speed 2.8 X
Track quality 99.9 %
Test CRC 0A71466D
Copy CRC 0A71466D
Track not present in AccurateRip database
Copy OK
Track 3
Filename W:\_MUSIC ALL\Meadow Quartet - Unexpected (2012) [FLAC]\03. Nature's Tool.wav
Peak level 100.0 %
Extraction speed 3.3 X
Track quality 100.0 %
Test CRC 3D993451
Copy CRC 3D993451
Track not present in AccurateRip database
Copy OK
Track 4
Filename W:\_MUSIC ALL\Meadow Quartet - Unexpected (2012) [FLAC]\04. Le Printemps.wav
Peak level 100.0 %
Extraction speed 2.9 X
Track quality 99.9 %
Test CRC FF125EC6
Copy CRC FF125EC6
Track not present in AccurateRip database
Copy OK
Track 5
Filename W:\_MUSIC ALL\Meadow Quartet - Unexpected (2012) [FLAC]\05. L'automne.wav
Peak level 69.7 %
Extraction speed 3.8 X
Track quality 100.0 %
Test CRC 12A8508E
Copy CRC 12A8508E
Track not present in AccurateRip database
Copy OK
Track 6
Filename W:\_MUSIC ALL\Meadow Quartet - Unexpected (2012) [FLAC]\06. Immersion.wav
Peak level 100.0 %
Extraction speed 4.3 X
Track quality 100.0 %
Test CRC D96274FA
Copy CRC D96274FA
Track not present in AccurateRip database
Copy OK
Track 7
Filename W:\_MUSIC ALL\Meadow Quartet - Unexpected (2012) [FLAC]\07. Form No. 1.wav
Peak level 100.0 %
Extraction speed 4.4 X
Track quality 100.0 %
Test CRC EB036667
Copy CRC EB036667
Track not present in AccurateRip database
Copy OK
Track 8
Filename W:\_MUSIC ALL\Meadow Quartet - Unexpected (2012) [FLAC]\08. Extinct.wav
Peak level 98.9 %
Extraction speed 4.6 X
Track quality 100.0 %
Test CRC A1CD94CC
Copy CRC A1CD94CC
Track not present in AccurateRip database
Copy OK
None of the tracks are present in the AccurateRip database
No errors occurred
End of status report
---- CUETools DB Plugin V2.1.3
[CTDB TOCID: m9KhQHq_AjhP4c3fce8vGw8r.i8-] disk not present in database, Submit result: m9KhQHq_AjhP4c3fce8vGw8r.i8- has been uploaded
==== Log checksum 86047778DC77E83D58E7D9E4AED9F0CB29CAAD790BC8058F5FA0BB79264A1272 ====
 
.cue
REM GENRE Jazz
REM DATE 2012
REM DISCID 6D0A9A08
REM COMMENT "ExactAudioCopy v1.0b3"
PERFORMER "Meadow Quartet"
TITLE "Unexpected"
FILE "01. Das Schloss. A tribute to F. Kafka.wav" WAVE
TRACK 01 AUDIO
TITLE "Das Schloss. A tribute to F. Kafka"
PERFORMER "Meadow Quartet"
INDEX 01 00:00:00
FILE "02. Goldene Medina.wav" WAVE
TRACK 02 AUDIO
TITLE "Goldene Medina"
PERFORMER "Meadow Quartet"
INDEX 01 00:00:00
FILE "03. Nature's Tool.wav" WAVE
TRACK 03 AUDIO
TITLE "Nature's Tool"
PERFORMER "Meadow Quartet"
INDEX 01 00:00:00
FILE "04. Le Printemps.wav" WAVE
TRACK 04 AUDIO
TITLE "Le Printemps"
PERFORMER "Meadow Quartet"
INDEX 01 00:00:00
FILE "05. L'automne.wav" WAVE
TRACK 05 AUDIO
TITLE "L'automne"
PERFORMER "Meadow Quartet"
INDEX 01 00:00:00
FILE "06. Immersion.wav" WAVE
TRACK 06 AUDIO
TITLE "Immersion"
PERFORMER "Meadow Quartet"
INDEX 01 00:00:00
FILE "07. Form No. 1.wav" WAVE
TRACK 07 AUDIO
TITLE "Form No. 1"
PERFORMER "Meadow Quartet"
INDEX 01 00:00:00
FILE "08. Extinct.wav" WAVE
TRACK 08 AUDIO
TITLE "Extinct"
PERFORMER "Meadow Quartet"
INDEX 01 00:00:00
 
Лог проверки качества
-----------------------
DON'T MODIFY THIS FILE
-----------------------
PERFORMER: auCDtect Task Manager, ver. 1.6.0 RC1 build 1.6.0.1
Copyright (c) 2008-2010 y-soft. All rights reserved
http://y-soft.org
ANALYZER: auCDtect: CD records authenticity detector, version 0.8.2
Copyright (c) 2004 Oleg Berngardt. All rights reserved.
Copyright (c) 2004 Alexander Djourik. All rights reserved.
FILE: 01. Das Schloss. A tribute to F. Kafka.flac
Size: 33723198 Hash: 7091B1ECBCAA9C499B218A77E39E5572 Accuracy: -m0
Conclusion: CDDA 100%
Signature: 3CFDCB48641CC49E0DAE321C4B73C23182798360
FILE: 02. Goldene Medina.flac
Size: 36996414 Hash: 7CB01CF745D9BA18FD2216E0C129A235 Accuracy: -m0
Conclusion: CDDA 100%
Signature: DA6E2284B2FBF1B0DF4E83876F15FBC6DF5729A1
FILE: 03. Nature's Tool.flac
Size: 25520113 Hash: D43F742EF9FEF8103FDEE04A1C8244DC Accuracy: -m0
Conclusion: CDDA 100%
Signature: 9F49B37159CD9B09DD1D17F15DD15938BE8B5C94
FILE: 04. Le Printemps.flac
Size: 23691387 Hash: 622DBD87AE88C2C6C4464C16BB0B243F Accuracy: -m0
Conclusion: CDDA 99%
Signature: 4D51EAB715F8EE8492E3FDF3FC6E0F1E917C5512
FILE: 05. L'automne.flac
Size: 23659570 Hash: CEF56F14B9C04115EAE86B4915BCE853 Accuracy: -m0
Conclusion: CDDA 100%
Signature: 8D7A5F22C80F0977F35E8FF992E9E4D68A3AC02D
FILE: 06. Immersion.flac
Size: 49794093 Hash: 5F3A23046B5BA9456D1DBEF0DDBACD65 Accuracy: -m0
Conclusion: CDDA 100%
Signature: D86523E0B784A22B12B1B016B8CCEB6A1B3BB2DB
FILE: 07. Form No. 1.flac
Size: 29392624 Hash: 16F8BD1DAF7F0DA2D2CFC10E3D1202A2 Accuracy: -m0
Conclusion: CDDA 100%
Signature: 1A8F764ABAC16E4E3FA840936B863313B2BAF906
FILE: 08. Extinct.flac
Size: 28027429 Hash: 2BA032D600127921D626CEF17CB1A720 Accuracy: -m0
Conclusion: CDDA 100%
Signature: E4A1049D5B3C589D5716F08335AD72FC11417758
 
Об альбоме (сборнике)
Meadow Quartet came into being in 2009 in Gdansk. The first rehearsals took place in the Academy of Music at Meadow Street in Gdansk.
Meadow is commonly associated with tranquility and joy. However, it is also the wide open space where changes, transformations and joint venture can take place. Meadow Quartet tries to create the space, which can be diffused by influences of modern chamber music, jazz, improvised music, film music and the most fundamental medium - traditional klezmer music. Meadow Quartet, at last, is an exciting challenge: following a path which defies simple stylistic classification.
Finally, Meadow Quartet denotes four outstanding musician – four instrumentalists, each inspired by one of the above type of music, but altogether Meadow Quartet is four, synergizing in musical performance, personalities.
 
Состав
Marcin Malinowski: clarinets
Michal Piwowarczyk: viola
Piotr Skowronski: accordion
Jaroslaw Stokowski: bass
14:16
348
Нет комментариев. Ваш будет первым!