Поиск

(Ethnic Jazz, Italian Folk, Western European Traditions) [CD] Enzo Rao, Glen Velez, Gianni Gebbia - Ettna - 1993, FLAC (image+.cue), lossless

(Ethnic Jazz, Italian Folk, Western European Traditions) [CD] Enzo Rao, Glen Velez, Gianni Gebbia - Ettna - 1993, FLAC (image+.cue), lossless
Треклист:
Enzo Rao, Glen Velez, Gianni Gebbia / Ettna
Жанр: Ethnic Jazz, Italian Folk, Western European Traditions
Носитель: CD
Страна-производитель диска: US
Год издания: 1993
Издатель (лейбл): Music Of The World
Номер по каталогу: CDH-309
Аудиокодек: FLAC (*.flac)
Тип рипа: image+.cue
Битрейт аудио: lossless
Продолжительность: 46:19
Источник (релизер): CD
Наличие сканов в содержимом раздачи: нет
Треклист:
1 Ettna 7:53
2 Acqua Di Mare 4:11
3 Vedersi Andar Via 9:47
4 Facci Arrappati 3:09
5 Dead Voices Dance 9:41
6 Waiting For You 4:29
7 Danse A Trois 6:52
 
Лог создания рипа
Exact Audio Copy V1.0 beta 2 from 29. April 2011
EAC extraction logfile from 4. July 2014, 11:41
Rao, Velez, Gebbia / Ettna
Used drive : Optiarc DVD RW AD-7170A Adapter: 0 ID: 0
Read mode : Secure
Utilize accurate stream : Yes
Defeat audio cache : Yes
Make use of C2 pointers : No
Read offset correction : 48
Overread into Lead-In and Lead-Out : No
Fill up missing offset samples with silence : Yes
Delete leading and trailing silent blocks : No
Null samples used in CRC calculations : Yes
Used interface : Native Win32 interface for Win NT & 2000
Used output format : User Defined Encoder
Selected bitrate : 320 kBit/s
Quality : High
Add ID3 tag : No
Command line compressor : C:\Program Files\Exact Audio Copy\Flac\flac.exe
Additional command line options : -V -8 -T "Date=%year%" -T "Genre=%genre%" %source%
TOC of the extracted CD
Track | Start | Length | Start sector | End sector
---------------------------------------------------------
1 | 0:00.25 | 7:56.40 | 25 | 35764
2 | 7:56.65 | 4:13.67 | 35765 | 54806
3 | 12:10.57 | 9:49.65 | 54807 | 99046
4 | 22:00.47 | 3:09.28 | 99047 | 113249
5 | 25:10.00 | 9:43.52 | 113250 | 157026
6 | 34:53.52 | 4:33.15 | 157027 | 177516
7 | 39:26.67 | 6:53.08 | 177517 | 208499
Range status and errors
Selected range
Filename K:\ЕАС\Rao, Velez, Gebbia - Ettna.wav
Peak level 90.8 %
Extraction speed 4.6 X
Range quality 100.0 %
Test CRC 158D0C07
Copy CRC 158D0C07
Copy OK
No errors occurred
AccurateRip summary
Track 1 accurately ripped (confidence 1) [2E0E6B81] (AR v2)
Track 2 accurately ripped (confidence 1) [10F9369A] (AR v2)
Track 3 accurately ripped (confidence 1) [1DA2758C] (AR v2)
Track 4 accurately ripped (confidence 1) [D6A41B6A] (AR v2)
Track 5 accurately ripped (confidence 1) [F6A7C92C] (AR v2)
Track 6 accurately ripped (confidence 1) [B75E80FD] (AR v2)
Track 7 accurately ripped (confidence 1) [807566A1] (AR v2)
All tracks accurately ripped
End of status report
==== Log checksum 20DCAACF909D2CCECF5064101008CE3C78EBEA0C2C6DAD2A94BC9B69A491B136 ====
 
Содержание индексной карты (.CUE)
REM GENRE Jazz
REM DATE 1993
REM DISCID 550ADC07
REM COMMENT "ExactAudioCopy v1.0b2"
PERFORMER "Rao, Velez, Gebbia"
TITLE "Ettna"
FILE "Rao, Velez, Gebbia - Ettna.flac" WAVE
TRACK 01 AUDIO
TITLE "Ettna"
PERFORMER "Rao, Velez, Gebbia"
INDEX 00 00:00:00
INDEX 01 00:00:25
TRACK 02 AUDIO
TITLE "Acqua di Mare"
PERFORMER "Rao, Velez, Gebbia"
INDEX 00 07:54:48
INDEX 01 07:56:65
TRACK 03 AUDIO
TITLE "Vedersi Andar Via"
PERFORMER "Rao, Velez, Gebbia"
INDEX 00 12:09:15
INDEX 01 12:10:57
TRACK 04 AUDIO
TITLE "Facci Arrappati"
PERFORMER "Rao, Velez, Gebbia"
INDEX 00 21:58:30
INDEX 01 22:00:47
TRACK 05 AUDIO
TITLE "Dead Voices Dance"
PERFORMER "Rao, Velez, Gebbia"
INDEX 01 25:10:00
TRACK 06 AUDIO
TITLE "Wainting for You"
PERFORMER "Rao, Velez, Gebbia"
INDEX 00 34:52:10
INDEX 01 34:53:52
TRACK 07 AUDIO
TITLE "Danse a Trois"
PERFORMER "Rao, Velez, Gebbia"
INDEX 00 39:23:48
INDEX 01 39:26:67
 
Об альбоме (сборнике)
Joined by soprano saxophonist Gianni Gebbia and frame drummer Glen Velez, violinist Rao interprets the folk music of his native Sicily on the engaging Ettna; although the material is primarily traditional, it's filtered here through jazz and funk, resulting in a unique tension between ancient and modern sounds.
 
Состав
Drums [Frame], Percussion – Glen Velez
Saxophone [Soprano, Eb Sopranino] – Gianni Gebbia
Violin, Bass, Programmed By, Composed By, Producer – Enzo Rao
Ettna. Percussion – Daniele Schimmenti, Vittorio Villa
Vedersi Andar Via. Piano – Diego Spilateri
15:04
389
Нет комментариев. Ваш будет первым!