Поиск

(Ethnic Jazz, Free Improvisation) Del-Alfoldi Saxophone Ensemble - Dusk - 1997, FLAC (tracks+.cue) lossless

Треклист:
Del-Alfoldi Saxophone Ensemble - Dusk
Жанр: Ethno Jazz, Free Improvisation
Страна-производитель диска: Hungary
Год издания диска: 1997
Издатель (лейбл): Rana In Fabula
Номер по каталогу: MZS 11
Аудио кодек: FLAC (*.flac)
Тип рипа: tracks+.cue
Битрейт аудио: lossless
Продолжительность: 1:06:13
Источник (релизер): собственный рип с оригинального диска.
Наличие сканов в содержимом раздачи: да
Треклист:
01. Lament 10:03
02. New Dance? 7:04
03. Fekete Kata 9:30
04. Metropolis Shaman Song 3:15
05. Verbunk and Silladri 6:28
06. Swallow (To My Master) 11:21
07. Dusk (To the Memory of Csiribiri) 13:39
08. Cool 4:53
 
Лог создания рипа
Exact Audio Copy V0.99 prebeta 5 from 4. May 2009
EAC extraction logfile from 7. April 2011, 6:57
Del-Alfoldi Szaxofonegyuttes / Dusk
Used drive : TSSTcorpCDDVDW SH-S222A Adapter: 1 ID: 0
Read mode : Secure
Utilize accurate stream : Yes
Defeat audio cache : Yes
Make use of C2 pointers : No
Read offset correction : 6
Overread into Lead-In and Lead-Out : No
Fill up missing offset samples with silence : Yes
Delete leading and trailing silent blocks : No
Null samples used in CRC calculations : Yes
Used interface : Installed external ASPI interface
Gap handling : Appended to previous track
Used output format : User Defined Encoder
Selected bitrate : 768 kBit/s
Quality : High
Add ID3 tag : No
Command line compressor : C:\Tool\Compress\FLAC\flac.exe
Additional command line options : -8 -V -T "ARTIST=%a" -T "TITLE=%t" -T "ALBUM=%g" -T "DATE=%y" -T "TRACKNUMBER=%n" -T "TOTALTRACKS=%x" -T "GENRE=%m" -T "ALBUM ARTIST=%v" -T "COMMENT=EAC V0.99 prebeta 5, Secure Mode, Test & Copy, AccurateRip, FLAC -8" %s
TOC of the extracted CD
Track | Start | Length | Start sector | End sector
---------------------------------------------------------
1 | 0:00.00 | 10:03.23 | 0 | 45247
2 | 10:03.23 | 7:04.58 | 45248 | 77105
3 | 17:08.06 | 9:30.60 | 77106 | 119915
4 | 26:38.66 | 3:15.57 | 119916 | 134597
5 | 29:54.48 | 6:28.29 | 134598 | 163726
6 | 36:23.02 | 11:21.46 | 163727 | 214847
7 | 47:44.48 | 13:39.09 | 214848 | 276281
8 | 61:23.57 | 4:53.08 | 276282 | 298264
Track 1
Filename C:\! UPLOAD\Del-Alfoldi Saxophone Ensemble - Dusk (1997) [FLAC] {}\01 - Lament.wav
Pre-gap length 0:00:02.00
Peak level 68.4 %
Track quality 100.0 %
Test CRC 5898A053
Copy CRC 5898A053
Accurately ripped (confidence 1) [60DEE8A2]
Copy OK
Track 2
Filename C:\! UPLOAD\Del-Alfoldi Saxophone Ensemble - Dusk (1997) [FLAC] {}\02 - New Dance .wav
Peak level 66.7 %
Track quality 100.0 %
Test CRC 607EDC1B
Copy CRC 607EDC1B
Accurately ripped (confidence 1) [043DEC45]
Copy OK
Track 3
Filename C:\! UPLOAD\Del-Alfoldi Saxophone Ensemble - Dusk (1997) [FLAC] {}\03 - Fekete Kata.wav
Peak level 65.4 %
Track quality 99.9 %
Test CRC 1FC25D24
Copy CRC 1FC25D24
Accurately ripped (confidence 1) [149B754E]
Copy OK
Track 4
Filename C:\! UPLOAD\Del-Alfoldi Saxophone Ensemble - Dusk (1997) [FLAC] {}\04 - Metropolis Shaman Song.wav
Peak level 82.1 %
Track quality 100.0 %
Test CRC FD4A4075
Copy CRC FD4A4075
Accurately ripped (confidence 1) [6C3DA03D]
Copy OK
Track 5
Filename C:\! UPLOAD\Del-Alfoldi Saxophone Ensemble - Dusk (1997) [FLAC] {}\05 - Verbunk es silladri.wav
Peak level 67.3 %
Track quality 100.0 %
Test CRC C6752D7F
Copy CRC C6752D7F
Accurately ripped (confidence 1) [94421856]
Copy OK
Track 6
Filename C:\! UPLOAD\Del-Alfoldi Saxophone Ensemble - Dusk (1997) [FLAC] {}\06 - Swallow (To My Master).wav
Peak level 86.9 %
Track quality 100.0 %
Test CRC 98EDA421
Copy CRC 98EDA421
Accurately ripped (confidence 1) [2514B5B8]
Copy OK
Track 7
Filename C:\! UPLOAD\Del-Alfoldi Saxophone Ensemble - Dusk (1997) [FLAC] {}\07 - Dusk (To The Memory of Csiribiri).wav
Peak level 77.4 %
Track quality 100.0 %
Test CRC EFC3A334
Copy CRC EFC3A334
Accurately ripped (confidence 1) [34165D6E]
Copy OK
Track 8
Filename C:\! UPLOAD\Del-Alfoldi Saxophone Ensemble - Dusk (1997) [FLAC] {}\08 - Cool.wav
Peak level 82.2 %
Track quality 100.0 %
Test CRC 2289C07E
Copy CRC 2289C07E
Accurately ripped (confidence 1) [FEE71B14]
Copy OK
All tracks accurately ripped
No errors occurred
End of status report
 
Содержание индексной карты (.CUE)
REM GENRE Jazz
REM DATE 1997
REM DISCID 6B0F8808
REM COMMENT "ExactAudioCopy v0.99pb5"
PERFORMER "Del-Alfoldi Szaxofonegyuttes"
TITLE "Dusk"
FILE "01 - Lament.wav" WAVE
TRACK 01 AUDIO
TITLE "Lament"
PERFORMER "Del-Alfoldi Szaxofonegyuttes"
INDEX 01 00:00:00
FILE "02 - New Dance .wav" WAVE
TRACK 02 AUDIO
TITLE "New Dance?"
PERFORMER "Del-Alfoldi Szaxofonegyuttes"
INDEX 01 00:00:00
FILE "03 - Fekete Kata.wav" WAVE
TRACK 03 AUDIO
TITLE "Fekete Kata"
PERFORMER "Del-Alfoldi Szaxofonegyuttes"
INDEX 01 00:00:00
FILE "04 - Metropolis Shaman Song.wav" WAVE
TRACK 04 AUDIO
TITLE "Metropolis Shaman Song"
PERFORMER "Del-Alfoldi Szaxofonegyuttes"
INDEX 01 00:00:00
FILE "05 - Verbunk es silladri.wav" WAVE
TRACK 05 AUDIO
TITLE "Verbunk es silladri"
PERFORMER "Del-Alfoldi Szaxofonegyuttes"
INDEX 01 00:00:00
FILE "06 - Swallow (To My Master).wav" WAVE
TRACK 06 AUDIO
TITLE "Swallow (To My Master)"
PERFORMER "Del-Alfoldi Szaxofonegyuttes"
INDEX 01 00:00:00
FILE "07 - Dusk (To The Memory of Csiribiri).wav" WAVE
TRACK 07 AUDIO
TITLE "Dusk (To The Memory of Csiribiri)"
PERFORMER "Del-Alfoldi Szaxofonegyuttes"
INDEX 01 00:00:00
FILE "08 - Cool.wav" WAVE
TRACK 08 AUDIO
TITLE "Cool"
PERFORMER "Del-Alfoldi Szaxofonegyuttes"
INDEX 01 00:00:00
 
Об исполнителе (группе)
About the group:
The ensemble was formed by three young sax-players in 1992, all born and, by and large, still living in the Southern and South-Eastern end of the Great Hungarian Plains. In fact they derive their name from the region of their birth. ("Dél-alföldi" means "of the Southern Plains"). Their common ground is not just a matter of geography, although geography matters too because the corner of Hungary they come from practically borders on the Balkans and that is also something that you can hear in their music. The present personnel crystallized in 1997. Their repertoire includes folk arrangements, traditional pieces, and jazzy, almost danceable compositions with their roots in the rhythmic world of Hungarian and Eastern European folk music and jazz. Their musical choices are illustrated by their instruments too: the bag pipe, the hit gardon (a percussion instrument resembling the shape of a cello), traditional recorders, and the "körtemuzsika" (a special Hungarian flute) are in their arsenal just as well as a unique vocal effect called tuva singing. In the singular compositional concepts of the three saxophonists just as in the free parts one can point out highly individual ideas. However, the influence of Mihály Dresch’s and György Szabados’ music on their approach is undeniable.
Recorded in Miskolc, Hungary 1997.
 
Состав
Bela Agoston - vocal/saxophone/clarinet
Robert Benko - double bass
Bela Pocok Burany - saxophon
Tamás Geroly - drums
Balazs Dongo Szokolay - saxophon/flute/clarinet
21:20
228
Нет комментариев. Ваш будет первым!