Поиск

(Ethnic Jazz, Eclectic) Fatima Spar and The Freedom Fries - Trust - 2008, FLAC (tracks+.cue), lossless

(Ethnic Jazz, Eclectic) Fatima Spar and The Freedom Fries - Trust - 2008, FLAC (tracks+.cue), lossless
Треклист:
Fatima Spar and The Freedom Fries / Trust
Жанр: Ethnic Jazz, Eclectic, Folk, Balkan, Brass
Год издания: 2008
Лейбл: Geco Tonwaren
Каталожный номер: H-550-2
Страна: Austria
Аудиокодек: FLAC (*.flac)
Тип рипа: tracks+.cue
Битрейт аудио: lossless
Продолжительность: 0:41:23
Источник (релизер): thr33face
Наличие сканов в содержимом раздачи: нет
Треклист:
01. Tueckebold (3:43)
02. Sarabande (4:10)
03. Trust (3:41)
04. The Good Way (2:38)
05. My Little Someone (3:30)
06. Die Kleptomanin (3:41)
07. Biting Creepers (3:32)
08. Knock-Kneed Sal' (2:53)
09. Rerun (2:45)
10. Overall (3:55)
11. Üç Atli (3:23)
12. Travellin' All Alone (3:31)
 
XLD log
X Lossless Decoder version 20110703 (135.1)
XLD extraction logfile from 2011-08-17 17:45:20 +0200
Fatima Spar and The Freedom Fries / Trust
Used drive : TSSTcorp CDDVDW SE-S224Q (revision TS02)
Ripper mode : XLD Secure Ripper
Disable audio cache : OK for the drive with a cache less than 1375KiB
Make use of C2 pointers : NO
Read offset correction : 6
Max retry count : 100
Gap status : Analyzed, Appended (except HTOA)
TOC of the extracted CD
Track | Start | Length | Start sector | End sector
---------------------------------------------------------
1 | 00:00:00 | 03:42:68 | 0 | 16717
2 | 03:42:68 | 04:09:39 | 16718 | 35431
3 | 07:52:32 | 03:41:06 | 35432 | 52012
4 | 11:33:38 | 02:38:33 | 52013 | 63895
5 | 14:11:71 | 03:29:67 | 63896 | 79637
6 | 17:41:63 | 03:41:16 | 79638 | 96228
7 | 21:23:04 | 03:32:14 | 96229 | 112142
8 | 24:55:18 | 02:52:74 | 112143 | 125116
9 | 27:48:17 | 02:44:62 | 125117 | 137478
10 | 30:33:04 | 03:55:16 | 137479 | 155119
11 | 34:28:20 | 03:23:20 | 155120 | 170364
12 | 37:51:40 | 03:31:06 | 170365 | 186195
AccurateRip Summary
Disc not found in AccurateRip DB.
All Tracks
Album gain : -4.94 dB
Peak : 0.977203
Statistics
Read error : 0
Jitter error (maybe fixed) : 0
Retry sector count : 0
Damaged sector count : 0
Track 01
Filename : 01 - Tueckebold.flac
Pre-gap length : 00:02:00
Track gain : -4.23 dB
Peak : 0.977173
CRC32 hash (test run) : 471B94DD
CRC32 hash : 471B94DD
CRC32 hash (skip zero) : 6C2E62C4
AccurateRip signature : 47128400
->Track not present in AccurateRip database.
Statistics
Read error : 0
Jitter error (maybe fixed) : 0
Retry sector count : 0
Damaged sector count : 0
Track 02
Filename : 02 - Sarabande.flac
Pre-gap length : 00:01:33
Track gain : -1.16 dB
Peak : 0.846527
CRC32 hash (test run) : E1A93A66
CRC32 hash : E1A93A66
CRC32 hash (skip zero) : E38C62CD
AccurateRip signature : 1B7C0B3B
->Track not present in AccurateRip database.
Statistics
Read error : 0
Jitter error (maybe fixed) : 0
Retry sector count : 0
Damaged sector count : 0
Track 03
Filename : 03 - Trust.flac
Track gain : -6.18 dB
Peak : 0.965973
CRC32 hash (test run) : AA8A4B92
CRC32 hash : AA8A4B92
CRC32 hash (skip zero) : C4D3A0FA
AccurateRip signature : 63D60C4E
->Track not present in AccurateRip database.
Statistics
Read error : 0
Jitter error (maybe fixed) : 0
Retry sector count : 0
Damaged sector count : 0
Track 04
Filename : 04 - The Good Way.flac
Pre-gap length : 00:02:11
Track gain : -5.80 dB
Peak : 0.977203
CRC32 hash (test run) : BB3842FD
CRC32 hash : BB3842FD
CRC32 hash (skip zero) : EFDE9BF6
AccurateRip signature : D0237FDF
->Track not present in AccurateRip database.
Statistics
Read error : 0
Jitter error (maybe fixed) : 0
Retry sector count : 0
Damaged sector count : 0
Track 05
Filename : 05 - My Little Someone.flac
Pre-gap length : 00:02:59
Track gain : -5.00 dB
Peak : 0.977173
CRC32 hash (test run) : F286A49D
CRC32 hash : F286A49D
CRC32 hash (skip zero) : DF6C5959
AccurateRip signature : 48E5A185
->Track not present in AccurateRip database.
Statistics
Read error : 0
Jitter error (maybe fixed) : 0
Retry sector count : 0
Damaged sector count : 0
Track 06
Filename : 06 - Die Kleptomanin.flac
Pre-gap length : 00:01:29
Track gain : -5.08 dB
Peak : 0.933197
CRC32 hash (test run) : 346D2B1B
CRC32 hash : 346D2B1B
CRC32 hash (skip zero) : CA442FD1
AccurateRip signature : 22602394
->Track not present in AccurateRip database.
Statistics
Read error : 0
Jitter error (maybe fixed) : 0
Retry sector count : 0
Damaged sector count : 0
Track 07
Filename : 07 - Biting Creepers.flac
Pre-gap length : 00:02:20
Track gain : -3.75 dB
Peak : 0.965973
CRC32 hash (test run) : B60AE92B
CRC32 hash : B60AE92B
CRC32 hash (skip zero) : E2B807F4
AccurateRip signature : ADCFD5E1
->Track not present in AccurateRip database.
Statistics
Read error : 0
Jitter error (maybe fixed) : 0
Retry sector count : 0
Damaged sector count : 0
Track 08
Filename : 08 - Knock-Kneed Sal'.flac
Pre-gap length : 00:02:46
Track gain : -6.15 dB
Peak : 0.977173
CRC32 hash (test run) : C879393A
CRC32 hash : C879393A
CRC32 hash (skip zero) : 421483AF
AccurateRip signature : D12EF866
->Track not present in AccurateRip database.
Statistics
Read error : 0
Jitter error (maybe fixed) : 0
Retry sector count : 0
Damaged sector count : 0
Track 09
Filename : 09 - Rerun.flac
Pre-gap length : 00:02:09
Track gain : -3.89 dB
Peak : 0.977173
CRC32 hash (test run) : 169855C8
CRC32 hash : 169855C8
CRC32 hash (skip zero) : E7EE3280
AccurateRip signature : 06EEE96B
->Track not present in AccurateRip database.
Statistics
Read error : 0
Jitter error (maybe fixed) : 0
Retry sector count : 0
Damaged sector count : 0
Track 10
Filename : 10 - Overall.flac
Pre-gap length : 00:02:56
Track gain : -3.90 dB
Peak : 0.954926
CRC32 hash (test run) : 1AEC29E3
CRC32 hash : 1AEC29E3
CRC32 hash (skip zero) : AD032C09
AccurateRip signature : 031F8B06
->Track not present in AccurateRip database.
Statistics
Read error : 0
Jitter error (maybe fixed) : 0
Retry sector count : 0
Damaged sector count : 0
Track 11
Filename : 11 - ГњГ§ Atli.flac
Pre-gap length : 00:03:35
Track gain : -5.45 dB
Peak : 0.851074
CRC32 hash (test run) : 43ED6326
CRC32 hash : 43ED6326
CRC32 hash (skip zero) : 1B3822D8
AccurateRip signature : E8A692A0
->Track not present in AccurateRip database.
Statistics
Read error : 0
Jitter error (maybe fixed) : 0
Retry sector count : 0
Damaged sector count : 0
Track 12
Filename : 12 - Travellin' All Alone.flac
Pre-gap length : 00:02:19
Track gain : -4.78 dB
Peak : 0.911926
CRC32 hash (test run) : 0EAB2A08
CRC32 hash : 0EAB2A08
CRC32 hash (skip zero) : 83D8F685
AccurateRip signature : 1CF9EBB7
->Track not present in AccurateRip database.
Statistics
Read error : 0
Jitter error (maybe fixed) : 0
Retry sector count : 0
Damaged sector count : 0
No errors occurred
End of status report
 
auCDtect's log
-----------------------
DON'T MODIFY THIS FILE
-----------------------
PERFORMER: auCDtect Task Manager, ver. 1.5.1RC3 build 1.5.1.4
Copyright (c) 2008-2010 y-soft. All rights reserved
http://y-soft.org
ANALYZER: auCDtect: CD records authenticity detector, version 0.8.2
Copyright (c) 2004 Oleg Berngardt. All rights reserved.
Copyright (c) 2004 Alexander Djourik. All rights reserved.
FILE: 12 - Travellin' All Alone.flac
Size: 21724895 Hash: 6ACAE4AA3930A23F8D4C9A4C97BAD540 Accuracy: -m0
Conclusion: CDDA 100%
Signature: 5FDF2AF1166D3B74CA7DF738D8F309689ECF214D
FILE: 11 - Üç Atli.flac
Size: 21322469 Hash: 150366F2696581973CDE6C211A05C99E Accuracy: -m0
Conclusion: CDDA 100%
Signature: BC3F52E138CDF7DB47B33891CF0CF9914C59CE0D
FILE: 10 - Overall.flac
Size: 23203426 Hash: C139C93A0EB355F51DCA9050CC18AB84 Accuracy: -m0
Conclusion: CDDA 100%
Signature: 345EBCB0D0006727E0302E1ADE3ACDF29A5CA0C1
FILE: 09 - Rerun.flac
Size: 17693599 Hash: F834A0D55CA7562625D9AADCFC834A98 Accuracy: -m0
Conclusion: CDDA 100%
Signature: 21B88F0199C4A787C433130A5FA1D9042606B644
FILE: 08 - Knock-Kneed Sal'.flac
Size: 17580912 Hash: 30760546FC692255069A4295A9BD26AE Accuracy: -m0
Conclusion: CDDA 100%
Signature: 89E612F1810A5FD776A82A3D220036553B3B6E86
FILE: 07 - Biting Creepers.flac
Size: 22778831 Hash: 63CB03F0A2E480451BD8636A15C06792 Accuracy: -m0
Conclusion: CDDA 100%
Signature: 9C101F33349BA1137DD5CFAD22B3784E1F544D10
FILE: 06 - Die Kleptomanin.flac
Size: 24379139 Hash: 9319DF5067C884FF6DD64070C6E9BCB5 Accuracy: -m0
Conclusion: CDDA 100%
Signature: 2110FDDABC5B13BB7865FE7DF96503ACF17A84B7
FILE: 05 - My Little Someone.flac
Size: 22217374 Hash: C092D89EF9E3DFA81A6E1B4934F49711 Accuracy: -m0
Conclusion: CDDA 100%
Signature: 16FD27170F987E20A24B6E6D66BC0901DA52799A
FILE: 04 - The Good Way.flac
Size: 17350369 Hash: C75F7DCB7E56B2A537B081BF69C3D399 Accuracy: -m0
Conclusion: CDDA 100%
Signature: 29C7705AC6F2B7BB0D5F9D250A64AC6541504CF6
FILE: 03 - Trust.flac
Size: 24011246 Hash: 15751DE94F5ED14EEB849E4151D286F9 Accuracy: -m0
Conclusion: CDDA 100%
Signature: 26505F1B52183534EEBB4D8D50B75BD5E88F5765
FILE: 02 - Sarabande.flac
Size: 22711767 Hash: E748F038C63CDD89A7EBB288D90B5B6C Accuracy: -m0
Conclusion: CDDA 99%
Signature: 6DD37FAC628ECA7A78A159DAC3338663B10677D9
FILE: 01 - Tueckebold.flac
Size: 20296867 Hash: 0CE9625A9989D8F0B7AC1C1BE442FFB1 Accuracy: -m0
Conclusion: CDDA 100%
Signature: A9CAC333E3A6729974753C2680A179CC678F27F6
 
.fixed.cue
TITLE "Trust"
PERFORMER "Fatima Spar and The Freedom Fries"
CATALOG 9006472011323
REM GENRE "World music"
REM DATE "2008"
REM DISCNUMBER 1
REM TOTALDISCS 1
REM DISCID A209B20C
REM REPLAYGAIN_ALBUM_GAIN -4.94 dB
REM REPLAYGAIN_ALBUM_PEAK 0.977203
FILE "01 - Tueckebold.flac" WAVE
TRACK 01 AUDIO
TITLE "Tueckebold"
SONGWRITER "Fatima Spar/Philipp Moosbrugger/Stephan Sperlich/Erwin Schober"
ISRC ;Rh300818010
REM REPLAYGAIN_TRACK_GAIN -4.23 dB
REM REPLAYGAIN_TRACK_PEAK 0.977173
INDEX 01 00:00:00
TRACK 02 AUDIO
TITLE "Sarabande"
SONGWRITER "Andrej Prozorov"
ISRC ;Rh300818020
REM REPLAYGAIN_TRACK_GAIN -1.16 dB
REM REPLAYGAIN_TRACK_PEAK 0.846527
INDEX 00 03:41:35
FILE "02 - Sarabande.flac" WAVE
INDEX 01 00:00:00
FILE "03 - Trust.flac" WAVE
TRACK 03 AUDIO
TITLE "Trust"
SONGWRITER "Milos Todorovski/Philipp Moosbrugger/Fatima Spar"
ISRC ;Rh300818030
REM REPLAYGAIN_TRACK_GAIN -6.18 dB
REM REPLAYGAIN_TRACK_PEAK 0.965973
INDEX 01 00:00:00
TRACK 04 AUDIO
TITLE "The Good Way"
SONGWRITER "Fatima Spar"
ISRC ;Rh300818040
REM REPLAYGAIN_TRACK_GAIN -5.80 dB
REM REPLAYGAIN_TRACK_PEAK 0.977203
INDEX 00 03:38:70
FILE "04 - The Good Way.flac" WAVE
INDEX 01 00:00:00
TRACK 05 AUDIO
TITLE "My Little Someone"
SONGWRITER "Andrej Prozorov/Fatima Spar"
ISRC ;Rh300818050
REM REPLAYGAIN_TRACK_GAIN -5.00 dB
REM REPLAYGAIN_TRACK_PEAK 0.977173
INDEX 00 02:35:49
FILE "05 - My Little Someone.flac" WAVE
INDEX 01 00:00:00
TRACK 06 AUDIO
TITLE "Die Kleptomanin"
SONGWRITER "Philipp Moosbrugger/Fatima Spar"
ISRC ;Rh300818070
REM REPLAYGAIN_TRACK_GAIN -5.08 dB
REM REPLAYGAIN_TRACK_PEAK 0.933197
INDEX 00 03:28:38
FILE "06 - Die Kleptomanin.flac" WAVE
INDEX 01 00:00:00
TRACK 07 AUDIO
TITLE "Biting Creepers"
SONGWRITER "Friedrich Holländer"
ISRC ;Rh300818060
REM REPLAYGAIN_TRACK_GAIN -3.75 dB
REM REPLAYGAIN_TRACK_PEAK 0.965973
INDEX 00 03:38:71
FILE "07 - Biting Creepers.flac" WAVE
INDEX 01 00:00:00
TRACK 08 AUDIO
TITLE "Knock-Kneed Sal'"
SONGWRITER "Unknown"
ISRC ;Rh300818080
REM REPLAYGAIN_TRACK_GAIN -6.15 dB
REM REPLAYGAIN_TRACK_PEAK 0.977173
INDEX 00 03:29:43
FILE "08 - Knock-Kneed Sal'.flac" WAVE
INDEX 01 00:00:00
TRACK 09 AUDIO
TITLE "Rerun"
SONGWRITER "Fatima Spar/Milos Todorovski"
ISRC ;Rh300818100
REM REPLAYGAIN_TRACK_GAIN -3.89 dB
REM REPLAYGAIN_TRACK_PEAK 0.977173
INDEX 00 02:50:65
FILE "09 - Rerun.flac" WAVE
INDEX 01 00:00:00
TRACK 10 AUDIO
TITLE "Overall"
SONGWRITER "Fatima Spar/Philipp Moosbrugger"
ISRC ;Rh300818110
REM REPLAYGAIN_TRACK_GAIN -3.90 dB
REM REPLAYGAIN_TRACK_PEAK 0.954926
INDEX 00 02:42:06
FILE "10 - Overall.flac" WAVE
INDEX 01 00:00:00
TRACK 11 AUDIO
TITLE "Uc Atli"
SONGWRITER "Fatima Spar/Vasya Gontarski"
ISRC ;Rh300818120
REM REPLAYGAIN_TRACK_GAIN -5.45 dB
REM REPLAYGAIN_TRACK_PEAK 0.851074
INDEX 00 03:51:56
FILE "11 - Uc Atli.flac" WAVE
INDEX 01 00:00:00
TRACK 12 AUDIO
TITLE "Travellin' All Alone"
SONGWRITER "James P. Johnson"
ISRC ;Rh300818130
REM REPLAYGAIN_TRACK_GAIN -4.78 dB
REM REPLAYGAIN_TRACK_PEAK 0.911926
INDEX 00 03:21:01
FILE "12 - Travellin' All Alone.flac" WAVE
INDEX 01 00:00:00
 
Об исполнителе (группе)
Официальный сайт
Myspace
Их называют самым горячим экспортным музыкальным продуктом Австрии, стремительно завоевывающим мировой музыкальный олимп. Fatima Spar & The Freedom Fries, без сомнения, соответствуют своей репутации.
Эта группа уже стоит выше абсолютно всей возможной славы, восхищая своей музыкой толпы отдыхающих в клубах и на фестивалях Европы и далеко за ее пределами. Своим творчеством группа оживляет утверждение, что развлечение может быть и популярным, и одновременно музыкально значимым.
Когда на концертах мощный глубокий голос Fatima Spar ритмично рассекает воздух под неподдающееся описанию сопровождение Freedom Fries, публику «рвет на части», она кричит, визжит и стонет от переполняющих ее эмоций…- так восторженно отзывается о группе западная пресса.
Невозможно даже пытаться свести стиль этой группы к какому-то одному музыкальному направлению: так много запахов и звуков со всех уголков мира смешались в их музыке в один бесконечный экзотический микс. Некоторые пассажи просто захватывают дух: когда слышишь одновременно dixie jazz, brassband, цыганские мотивы, турецкие напевы, балканские ритмы и ближневосточный традиционный klezmer - кружится голова и ноги сами идут в пляс.
Их дебютную работу, закодированную под фантастическим словом «Zirzop», – критики назвали одним из самых многосторонних альбомов world/ethno-музыки, который оставляет далеко позади все мировые музыкальные стереотипы. Не случайно же Zirzop номинировался на The Austrian Amadeus Music Award-2007 как лучший альбом, в категории World/Folk/Jazz .last.fm
 
Состав
Nihal Şentürk (Fatima Spar) - vocals
Andrej Prozorov - sax
Alexander Wladigeroff - trumpet
Erwin Schober - drums
Franz Grützner - trombone
Philipp Moosbrugger - bass
Благодарности за наводку criterion.
10:03
340
Нет комментариев. Ваш будет первым!