Поиск

(Ethnic Jazz, Contemporary Jazz, Vocal Jazz) Eliane Elias - Solos and Duets - 1995, FLAC (image+.cue), lossless

(Ethnic Jazz, Contemporary Jazz, Vocal Jazz) Eliane Elias - Solos and Duets - 1995, FLAC (image+.cue), lossless
Треклист:
Eliane Elias - Solos and Duets
Жанр: Ethnic Jazz, Contemporary Jazz, Vocal Jazz
Страна-производитель диска: Нидерланды
Год издания: 1995
Издатель (лейбл): Blue Note
Номер по каталогу: 7243 8 32073 2 9
Страна: США
Аудиокодек: FLAC (*.flac)
Тип рипа: image+.cue
Битрейт аудио: lossless
Продолжительность: 54:01
Источник (релизер): j_mnemonic (hqshare)
Наличие сканов в содержимом раздачи: да
Треклист:
01. Autumn Leaves (Kosma-Mercer-Prevert) - 4:50
02. The Masquerade Is Over (Wrubel-Magidson) - 5:12
03. The Way You Look Tonight (Fields-Kern) - 10:05
04. All the Things You Are (Kern-Hammerstein) - 3:21
05. Joy Spring (Brown)/Have You Met Miss Jones (Rodgers-Hart) - 4:54
06. Just Enough (Hancock) - 5:43
07. Asa Branca (Gonzaga) - 6:06
08. Messages (Elias-Hancock) - 3:36
09. Messages Part 2 (Elias-Hancock) - 2:36
10. Messages Part 3 (Elias-Hancock) - 5:58
11. Messages Part 4 (Elias-Hancock) - 1:41
Состав:
Eliane Elias - piano
Herbie Hancock - piano (#3,6,8-11)
#1,2,4,5,7: Recorded at Elias Studio, Sao Paulo in December 1994.
#3,6,8-11: Recorded at Hit Factory, New York on November 18, 1994.
 
Лог создания рипа
EAC extraction logfile from 30. November 2004, 15:32 for CD
Eliane Elias / Solos and Duets
Used drive : PLEXTOR CD-R PX-W5224A Adapter: 1 ID: 1
Read mode : Secure with NO C2, accurate stream, disable cache
Read offset correction : 0
Overread into Lead-In and Lead-Out : No
Used output format : Internal WAV Routines
44.100 Hz; 16 Bit; Stereo
Other options :
Fill up missing offset samples with silence : Yes
Delete leading and trailing silent blocks : No
Installed external ASPI interface
Range status and errors
Selected range
Filename J:\Emule\EAC\CDImage.wav
Peak level 98.6 %
Range quality 100.0 %
CRC 86DEB1CA
Copy OK
No errors occured
End of status report
 
Содержание индексной карты (.CUE)
PERFORMER "Eliane Elias"
TITLE "Solos and Duets"
FILE "Eliane Elias - Solos and Duets.wav" WAVE
TRACK 01 AUDIO
TITLE "Autumn Leaves"
PERFORMER "Eliane Elias"
INDEX 01 00:00:00
TRACK 02 AUDIO
TITLE "The Masquerade Is Over"
PERFORMER "Eliane Elias"
INDEX 00 04:47:20
INDEX 01 04:50:00
TRACK 03 AUDIO
TITLE "The Way You Look Tonight"
PERFORMER "Eliane Elias"
INDEX 00 09:58:17
INDEX 01 10:01:65
TRACK 04 AUDIO
TITLE "All the Things You Are"
PERFORMER "Eliane Elias"
INDEX 00 20:05:20
INDEX 01 20:06:70
TRACK 05 AUDIO
TITLE "Joy Spring/Have You Met Miss Jones"
PERFORMER "Eliane Elias"
INDEX 00 23:26:45
INDEX 01 23:28:25
TRACK 06 AUDIO
TITLE "Just Enough"
PERFORMER "Eliane Elias"
INDEX 00 28:18:05
INDEX 01 28:21:72
TRACK 07 AUDIO
TITLE "Asa Branca"
PERFORMER "Eliane Elias"
INDEX 00 34:04:40
INDEX 01 34:05:15
TRACK 08 AUDIO
TITLE "Messages"
PERFORMER "Eliane Elias"
INDEX 01 40:10:55
TRACK 09 AUDIO
TITLE "Messages Part 2"
PERFORMER "Eliane Elias"
INDEX 01 43:47:17
TRACK 10 AUDIO
TITLE "Messages Part 3"
PERFORMER "Eliane Elias"
INDEX 01 46:22:72
TRACK 11 AUDIO
TITLE "Messages Part 4"
PERFORMER "Eliane Elias"
INDEX 01 52:21:27
 
Review by Scott Yanow
This release is a change of pace for Eliane Elias. Instead of interpreting Brazilian songs, fusion, or modern bop, Elias shows off her classical technique on a set of acoustic solos plus six duets with Herbie Hancock. She really digs into the standards (sometimes sounding a little like Keith Jarrett) and creates some fairly free and unexpected ideas while putting the accent on lyricism. Some of the music is introspective, and there are wandering sections, but the net results are logical and enjoyable. As for the duets, Elias and Hancock mostly stay out of each other's way, which is an accomplishment when one considers that the four-part "Messages" is a series of free improvisations. There are playful spots (particularly on the adventurous ten-minute rendition of "The Way You Look Tonight") and, since Elias knows Hancock's style well (and was clearly thrilled to have him on the date), their collaborations work quite well. A successful outing.
03:10
284
Нет комментариев. Ваш будет первым!