Поиск

(Ethnic Jazz, classical) MoZuluArt - Zulu music meets Mozart - 2007, APE (image+.cue), lossless

(Ethnic Jazz, classical) MoZuluArt - Zulu music meets Mozart - 2007, APE (image+.cue), lossless
Треклист:
MoZuluArt / Zulu music meets Mozart
Жанр: Ethnic Jazz, classical
Страна-производитель диска: E.U.
Год издания диска: 2007
Издатель (лейбл): Universal Music
Страна: Zimbabwe
Аудиокодек: APE (*.ape)
Тип рипа: image+.cue
Битрейт аудио: lossless
Продолжительность: 48:36
Источник (релизер): Мой рип
Наличие сканов в содержимом раздачи: нет
Треклист:
1. Amasiko Intro
Words & music: B. N. Z. Nkomo 0:58
2. Bheka Kimi
Words & music: B. N. Z. Nkomo
inspired by Rondo D dur by W. A. Mozart 3:10
3. Igqiha
Traditional arranged by V. M. Ndlovu, R. Guggenbichler,
B. Z. N. Nkomo and Ramadu
Xhosa traditional “click song” made famous by Miriam Makeba 3:36
4. Zungikhumbule
Words & music: V. M. Ndlovu
inspired by Sonate A dur by W. A. Mozart 3:07
5. Mbombela
Traditional arranged by V. M. Ndlovu, R. Guggenbichler, B. Z. N. Nkomo and Ramadu
with Wolfgang Puschnig on flute 3:48
6. Phakathi
Words & music: Ramadu & R. Guggenbichler
Inspired by "In diesen heil´gen Hallen" from The Magic Flute 5:42
7. Amasiko
Words & music: B. N. Z. Nkomo 2:43
8. Blue River
Words & music: V. M. Ndlovu
arranged by R. Guggenbichler 5:47
9. Sizohamba Naye
Traditional arranged by V. M. Ndlovu, R Guggenbichler, B. Z. N. Nkomo and Ramadu 2:52
10. Qula
Traditional arranged by V. M. Ndlovu, R. Guggenbichler, B. Z. N. Nkomo and Ramadu
Xhosa traditional 3:02
11. Tinto
Music R. Guggenbichler
Inspired by tinto de verrano 3:57
12. Masiyeni
Words & music: Ramadu
Inspired by Fantasie in D moll W. A. Mozart 3:18
13. Amandebele
Traditional arranged by Ramadu & R. Guggenbichler
A song admiring the happy lifestyle and culture of the Ndebele people 3:14
14. Bheka Kimi
Words & music: B. N. Z. Nkomo
inspired by Rondo D dur by W. A. Mozart
live with Vienna Symphony Orchestra 2:53
 
Лог создания рипа
Exact Audio Copy V0.99 prebeta 4 from 23. January 2008
Отчёт EAC об извлечении, выполненном 15. декабря 2011, 14:49
MoZuluArt / MoZuluArt
Дисковод: TSSTcorpCDRWDVD TSL462D Adapter: 2 ID: 0
Режим чтения : Достоверность
Использование точного потока : Да
Отключение кэша аудио : Да
Использование указателей C2 : Нет
Коррекция смещения при чтении : 6
Способность читать области Lead-in и Lead-out : Нет
Заполнение пропущенных сэмплов тишиной : Да
Удаление блоков с тишиной в начале и конце : Нет
При вычислениях CRC использовались нулевые сэмплы : Да
Интерфейс : Встроенный Win32-интерфейс для Win NT/2000
Выходной формат : Внутренние WAV-операции
Формат сэмплов : 44.100 Гц; 16 бит; стерео
TOC извлечённого CD
Трек | Старт | Длительность | Начальный сектор | Конечный сектор
---------------------------------------------------------------------
1 | 0:00.00 | 0:59.02 | 0 | 4426
2 | 0:59.02 | 3:12.11 | 4427 | 18837
3 | 4:11.13 | 3:37.40 | 18838 | 35152
4 | 7:48.53 | 3:07.40 | 35153 | 49217
5 | 10:56.18 | 3:52.46 | 49218 | 66663
6 | 14:48.64 | 5:42.50 | 66664 | 92363
7 | 20:31.39 | 2:46.40 | 92364 | 104853
8 | 23:18.04 | 5:48.49 | 104854 | 131002
9 | 29:06.53 | 2:55.03 | 131003 | 144130
10 | 32:01.56 | 3:03.13 | 144131 | 157868
11 | 35:04.69 | 3:59.72 | 157869 | 175865
12 | 39:04.66 | 3:20.38 | 175866 | 190903
13 | 42:25.29 | 3:17.01 | 190904 | 205679
14 | 45:42.30 | 2:53.61 | 205680 | 218715
Характеристики диапазона извлечения и сообщения об ошибках
Выбранный диапазон
Имя файла C:\Music\Mozuluart_2007\MoZuluArt - MoZuluArt.wav
Пиковый уровень 98.8 %
Качество диапазона 100.0 %
CRC теста E0BDC93C
CRC копии E0BDC93C
Копирование... OK
Ошибок не произошло
AccurateRip: сводка
Трек 1 точное извлечение (доверие 4) [43AD969C]
Трек 2 точное извлечение (доверие 4) [A60FEBC2]
Трек 3 точное извлечение (доверие 4) [21F43328]
Трек 4 точное извлечение (доверие 4) [D1C6DB68]
Трек 5 точное извлечение (доверие 4) [0DF12594]
Трек 6 точное извлечение (доверие 4) [995E18B0]
Трек 7 точное извлечение (доверие 4) [494F2C6D]
Трек 8 точное извлечение (доверие 4) [265EA675]
Трек 9 точное извлечение (доверие 4) [07F5A09D]
Трек 10 точное извлечение (доверие 4) [61CD5D0B]
Трек 11 точное извлечение (доверие 4) [BC8B76B0]
Трек 12 точное извлечение (доверие 4) [FC222175]
Трек 13 точное извлечение (доверие 4) [A66B3F19]
Трек 14 точное извлечение (доверие 4) [9830FF89]
Все треки извлечены точно
Конец отчёта
 
Содержание индексной карты (.CUE)
REM GENRE Jazz
REM DATE 2007
REM DISCID AE0B640E
REM COMMENT "ExactAudioCopy v0.99pb4"
PERFORMER "MoZuluArt"
TITLE "MoZuluArt"
FILE "MoZuluArt - MoZuluArt.wav" WAVE
TRACK 01 AUDIO
TITLE "Amasiko Intro"
PERFORMER "MoZuluArt"
INDEX 01 00:00:00
TRACK 02 AUDIO
TITLE "Bheka kimi"
PERFORMER "MoZuluArt"
INDEX 00 00:58:51
INDEX 01 00:59:02
TRACK 03 AUDIO
TITLE "Igqiha"
PERFORMER "MoZuluArt"
INDEX 00 04:09:61
INDEX 01 04:11:13
TRACK 04 AUDIO
TITLE "Zungikhumbule"
PERFORMER "MoZuluArt"
INDEX 00 07:47:55
INDEX 01 07:48:53
TRACK 05 AUDIO
TITLE "Mbombela"
PERFORMER "MoZuluArt"
INDEX 01 10:56:18
TRACK 06 AUDIO
TITLE "Phakathi"
PERFORMER "MoZuluArt"
INDEX 00 14:44:51
INDEX 01 14:48:64
TRACK 07 AUDIO
TITLE "Amasiko"
PERFORMER "MoZuluArt"
INDEX 00 20:31:22
INDEX 01 20:31:39
TRACK 08 AUDIO
TITLE "Blue River"
PERFORMER "MoZuluArt"
INDEX 00 23:15:06
INDEX 01 23:18:04
TRACK 09 AUDIO
TITLE "Sizohamba Naye"
PERFORMER "MoZuluArt"
INDEX 00 29:06:02
INDEX 01 29:06:53
TRACK 10 AUDIO
TITLE "Qula"
PERFORMER "MoZuluArt"
INDEX 00 31:59:13
INDEX 01 32:01:56
TRACK 11 AUDIO
TITLE "Tinto"
PERFORMER "MoZuluArt"
INDEX 00 35:04:46
INDEX 01 35:04:69
TRACK 12 AUDIO
TITLE "Masiyeni"
PERFORMER "MoZuluArt"
INDEX 00 39:02:71
INDEX 01 39:04:66
TRACK 13 AUDIO
TITLE "Amandebele"
PERFORMER "MoZuluArt"
INDEX 00 42:23:41
INDEX 01 42:25:29
TRACK 14 AUDIO
TITLE "Bheka kimi Live"
PERFORMER "MoZuluArt"
INDEX 00 45:40:17
INDEX 01 45:42:30
 
Состав
Dumisani Ramadu Moyo - voc,perc
Blessings Zibusiso Nqo Nkomo - voc
Vusa Mkhaya Ndlovu - voc
Roland Guggenbichler - piano
00:20
319
Нет комментариев. Ваш будет первым!