Поиск

(Ethnic Jazz) [CD] VA - Folk Roots Jazz - 2000, FLAC (tracks+.cue), lossless

- Various Artists -
- Folk Roots Jazz -

Жанр: Ethnic Jazz
Носитель: CD
Страна-производитель диска: Greece
Год издания диска: 2000
Издатель (лейбл): LYRA
Номер по каталогу: CD 0690
Страна: Greece
Аудиокодек: FLAC (*.flac)
Тип рипа: tracks+.cue
Битрейт аудио: lossless
Продолжительность: 00:57:36
Источник (релизер): alekow
Наличие сканов в содержимом раздачи: да
Треклист:
01. The Black Sea Project - Tekez Zortlatmasi (06:37)
02. Iasis - Ecstasy (05:52)
03. Mode Plagal - Ivo (05:05)
04. Costas Theodorou - Circular Dance (05:27)
05. Florina Brass Band - Levendikos I (06:03)
06. Human Touch - Gianni Mou To Mantili Sou (09:54)
07. Takis Barberis - Polytropon (05:40)
08. Avaton - Simoon (10:01)
09. Yorgos Kondrafouris - Don't Be Shy (02:57)
 
Лог создания рипа
Exact Audio Copy V1.0 beta 1 from 15. November 2010
EAC extraction logfile from 3. March 2014, 12:10
Various / Folk Roots Jazz
Used drive : TSSTcorpCDDVDW SH-224DB Adapter: 1 ID: 0
Read mode : Secure
Utilize accurate stream : Yes
Defeat audio cache : Yes
Make use of C2 pointers : No
Read offset correction : 6
Overread into Lead-In and Lead-Out : No
Fill up missing offset samples with silence : Yes
Delete leading and trailing silent blocks : No
Null samples used in CRC calculations : Yes
Used interface : Native Win32 interface for Win NT & 2000
Gap handling : Appended to previous track
Used output format : User Defined Encoder
Selected bitrate : 896 kBit/s
Quality : High
Add ID3 tag : No
Command line compressor : C:\Program Files\Exact Audio Copy\Flac\flac.exe
Additional command line options : -6 -V -T "ARTIST=%a" -T "TITLE=%t" -T "ALBUM=%g" -T "DATE=%y" -T "TRACKNUMBER=%n" -T "GENRE=%m" -T "COMMENT=%e" %s -o %d
TOC of the extracted CD
Track | Start | Length | Start sector | End sector
---------------------------------------------------------
1 | 0:00.00 | 6:37.19 | 0 | 29793
2 | 6:37.19 | 5:51.67 | 29794 | 56185
3 | 12:29.11 | 5:05.09 | 56186 | 79069
4 | 17:34.20 | 5:26.68 | 79070 | 103587
5 | 23:01.13 | 6:03.24 | 103588 | 130836
6 | 29:04.37 | 9:53.59 | 130837 | 175370
7 | 38:58.21 | 5:39.51 | 175371 | 200846
8 | 44:37.72 | 10:00.44 | 200847 | 245890
9 | 54:38.41 | 2:56.38 | 245891 | 259128
Track 1
Filename C:\New Folder\01 - The Black Sea Project - Tekez Zortlatmasi.wav
Pre-gap length 0:00:02.00
Peak level 100.0 %
Extraction speed 1.9 X
Track quality 100.0 %
Test CRC 5E959D53
Copy CRC 5E959D53
Track not present in AccurateRip database
Copy OK
Track 2
Filename C:\New Folder\02 - Iasis - Ecstasy.wav
Pre-gap length 0:00:02.00
Peak level 98.7 %
Extraction speed 2.1 X
Track quality 100.0 %
Test CRC 66977BFF
Copy CRC 66977BFF
Track not present in AccurateRip database
Copy OK
Track 3
Filename C:\New Folder\03 - Mode Plagal - Ivo.wav
Pre-gap length 0:00:02.00
Peak level 98.6 %
Extraction speed 2.3 X
Track quality 100.0 %
Test CRC E58A83D4
Copy CRC E58A83D4
Track not present in AccurateRip database
Copy OK
Track 4
Filename C:\New Folder\04 - Costas Theodorou - Circular Dance.wav
Pre-gap length 0:00:02.00
Peak level 98.5 %
Extraction speed 2.6 X
Track quality 100.0 %
Test CRC 6B59D570
Copy CRC 6B59D570
Track not present in AccurateRip database
Copy OK
Track 5
Filename C:\New Folder\05 - Florina Brass Band - Levendikos I.wav
Pre-gap length 0:00:02.00
Peak level 94.3 %
Extraction speed 2.8 X
Track quality 100.0 %
Test CRC 0CE96ABC
Copy CRC 0CE96ABC
Track not present in AccurateRip database
Copy OK
Track 6
Filename C:\New Folder\06 - Human Touch - Gianni Mou To Mantili Sou.wav
Pre-gap length 0:00:02.00
Peak level 97.7 %
Extraction speed 3.2 X
Track quality 100.0 %
Test CRC 80CD2261
Copy CRC 80CD2261
Track not present in AccurateRip database
Copy OK
Track 7
Filename C:\New Folder\07 - Takis Barberis - Polytropon.wav
Pre-gap length 0:00:02.00
Peak level 97.7 %
Extraction speed 2.7 X
Track quality 99.9 %
Test CRC 62C4C17B
Copy CRC 62C4C17B
Track not present in AccurateRip database
Copy OK
Track 8
Filename C:\New Folder\08 - Avaton - Simoon.wav
Pre-gap length 0:00:02.00
Peak level 94.3 %
Extraction speed 3.6 X
Track quality 100.0 %
Test CRC 845ADA78
Copy CRC 845ADA78
Track not present in AccurateRip database
Copy OK
Track 9
Filename C:\New Folder\09 - Yorgos Kondrafouris - Don't Be Shy.wav
Pre-gap length 0:00:02.00
Peak level 90.0 %
Extraction speed 3.2 X
Track quality 100.0 %
Test CRC 48BB1EAF
Copy CRC 48BB1EAF
Track not present in AccurateRip database
Copy OK
None of the tracks are present in the AccurateRip database
No errors occurred
End of status report
==== Log checksum 3B1AC967027F2E526327A90C93AFBC39E05113EBFCB6062DC480274A7199B2FD ====
 
Содержание индексной карты (.CUE)
REM GENRE Jazz
REM DATE 2000
REM DISCID 7F0D7F09
REM COMMENT "ExactAudioCopy v1.0b1"
PERFORMER "Various"
TITLE "Folk Roots Jazz"
FILE "01 - The Black Sea Project - Tekez Zortlatmasi.wav" WAVE
TRACK 01 AUDIO
TITLE "Tekez Zortlatmasi"
PERFORMER "The Black Sea Project"
INDEX 01 00:00:00
TRACK 02 AUDIO
TITLE "Ecstasy"
PERFORMER "Iasis"
INDEX 00 06:35:19
FILE "02 - Iasis - Ecstasy.wav" WAVE
INDEX 01 00:00:00
TRACK 03 AUDIO
TITLE "Ivo"
PERFORMER "Mode Plagal"
INDEX 00 05:49:67
FILE "03 - Mode Plagal - Ivo.wav" WAVE
INDEX 01 00:00:00
TRACK 04 AUDIO
TITLE "Circular Dance"
PERFORMER "Costas Theodorou"
INDEX 00 05:03:09
FILE "04 - Costas Theodorou - Circular Dance.wav" WAVE
INDEX 01 00:00:00
TRACK 05 AUDIO
TITLE "Levendikos I"
PERFORMER "Florina Brass Band"
INDEX 00 05:24:68
FILE "05 - Florina Brass Band - Levendikos I.wav" WAVE
INDEX 01 00:00:00
TRACK 06 AUDIO
TITLE "Gianni Mou To Mantili Sou"
PERFORMER "Human Touch"
INDEX 00 06:01:24
FILE "06 - Human Touch - Gianni Mou To Mantili Sou.wav" WAVE
INDEX 01 00:00:00
TRACK 07 AUDIO
TITLE "Polytropon"
PERFORMER "Takis Barberis"
INDEX 00 09:51:59
FILE "07 - Takis Barberis - Polytropon.wav" WAVE
INDEX 01 00:00:00
TRACK 08 AUDIO
TITLE "Simoon"
PERFORMER "Avaton"
INDEX 00 05:37:51
FILE "08 - Avaton - Simoon.wav" WAVE
INDEX 01 00:00:00
TRACK 09 AUDIO
TITLE "Don't Be Shy"
PERFORMER "Yorgos Kondrafouris"
INDEX 00 09:58:44
FILE "09 - Yorgos Kondrafouris - Don't Be Shy.wav" WAVE
INDEX 01 00:00:00
16:51
292
Нет комментариев. Ваш будет первым!