Поиск

(Ethnic Jazz) [CD] Mihaly Dresch Quartet (with Miklos Lukacs, Matyas Szandai, Istvan Balo & Ferenc Kovacs) - Argyelus - 2007, FLAC (tracks+.cue), lossless

(Ethnic Jazz) [CD] Mihaly Dresch Quartet (with Miklos Lukacs, Matyas Szandai, Istvan Balo & Ferenc Kovacs) - Argyelus - 2007, FLAC (tracks+.cue), lossless
Треклист:
Mihály Dresch Quartet / Árgyélus
Жанр: Ethnic Jazz
Носитель: CD
Страна-производитель диска: Hungary
Год издания: 2007
Издатель (лейбл): Budapest Music Center Records
Номер по каталогу: BMC CD 131
Страна: Hungary
Аудиокодек: FLAC (*.flac)
Тип рипа: tracks+.cue
Битрейт аудио: lossless
Продолжительность: 53:40
Источник (релизер): soulseek
Наличие сканов в содержимом раздачи: да
Треклист:
1. Töredék (Fragment) (9'39)
2. Széki Katonabúcsúztató (Soldier's farewell from Szék village) (3'42)
3. Örökség (Heritage) (10'28)
4. Hazafelé (Homeward bound) (8'05)
5. Árgyélus (7'15)
6. Cigányos (Archie-nak) (Tziganesque (for Archie)) (8'55)
7. In a sentimental mood (5'33)
All compositions by Mihály Dresch, except track 2 folk song arranged by Mihály Dresch, tracks 5 and 6 by Mihály Dresch
using themes from folk songs; track 7 by Duke Ellington arranged by Mihály Dresch, Miklós Lukács and Mátyás Szandai.
Recorded and mixed by Attila Kölcsényi at Tom-Tom Studio, Budapest 25-28/09/2006.
Состав:
Mihály Dresch: tenor and soprano saxophones, recorder, vocals
Mátyás Szandai: double bass
István Baló: drums
Miklós Lukács: cimbalom
Ferenc Kovács: violin (3, 5 & 6)
Описание: Гордость венгерского этно-джаза и мирового джаза вообще, замечательный композитор, саксофонист, флейтист Mihály Dresch со своим квартетом. Тихо таю в кресле от восторга, от его соло, композиторского таланта, абсолютно самостийной игры! И квартет просто изумительный.
Замечательный альбом! Требующий внимания, но он этого стоит.
Не знаю, есть ли ещё современный джазовый (этно-джазовый) ансамбль с постоянным составом с такой же способностью записывать просто изумительные пластинки?! У Dresch Quartet что ни альбом, то шедевр... Mihály Dresch - редкий перфекционист в современном джазовом мире.
 
Лог создания рипа
X Lossless Decoder version 20130602 (143.2)
XLD extraction logfile from 2013-06-12 13:36:45 +0400
Mihály Dresch Quartet / Árgyélus
Used drive : HL-DT-ST DVDRW GX30N (revision RP09)
Media type : Pressed CD
Ripper mode : XLD Secure Ripper
Disable audio cache : OK for the drive with a cache less than 1375KiB
Make use of C2 pointers : NO
Read offset correction : 6
Max retry count : 100
Gap status : Analyzed, Appended (except HTOA)
TOC of the extracted CD
Track | Start | Length | Start sector | End sector
---------------------------------------------------------
1 | 00:00:00 | 09:39:74 | 0 | 43498
2 | 09:39:74 | 03:42:00 | 43499 | 60148
3 | 13:21:74 | 10:28:00 | 60149 | 107248
4 | 23:49:74 | 08:05:48 | 107249 | 143671
5 | 31:55:47 | 07:16:27 | 143672 | 176398
6 | 39:11:74 | 08:55:00 | 176399 | 216523
7 | 48:06:74 | 05:33:01 | 216524 | 241499
AccurateRip Summary
Disc not found in AccurateRip DB.
All Tracks
Album gain : -4.07 dB
Peak : 0.977264
Statistics
Read error : 0
Jitter error (maybe fixed) : 0
Retry sector count : 0
Damaged sector count : 0
Track 01
Filename : /Users/anch/Music/FLAC/Mihaly Dresch Quartet - 2007 - Árgyelus [MP3 320]/01 - Toredek.mp3
/Users/anch/Music/FLAC/Mihaly Dresch Quartet - 2007 - Árgyelus [MP3 V0]/01 - Toredek.mp3
/Users/anch/Music/FLAC/Mihaly Dresch Quartet - 2007 - Árgyelus [FLAC]/01 - Toredek.flac
Pre-gap length : 00:02:00
Track gain : -2.85 dB
Peak : 0.977264
CRC32 hash (test run) : 3505240A
CRC32 hash : 3505240A
CRC32 hash (skip zero) : 7B2F4B85
AccurateRip v1 signature : 465A56D8
AccurateRip v2 signature : 6923DB16
->Track not present in AccurateRip database.
Statistics
Read error : 0
Jitter error (maybe fixed) : 0
Retry sector count : 0
Damaged sector count : 0
Track 02
Filename : /Users/anch/Music/FLAC/Mihaly Dresch Quartet - 2007 - Árgyelus [MP3 320]/02 - Szeki katonabucsuztato.mp3
/Users/anch/Music/FLAC/Mihaly Dresch Quartet - 2007 - Árgyelus [MP3 V0]/02 - Szeki katonabucsuztato.mp3
/Users/anch/Music/FLAC/Mihaly Dresch Quartet - 2007 - Árgyelus [FLAC]/02 - Szeki katonabucsuztato.flac
Pre-gap length : 00:03:34
Track gain : -1.76 dB
Peak : 0.630615
CRC32 hash (test run) : 3EC7BC7D
CRC32 hash : 3EC7BC7D
CRC32 hash (skip zero) : 78810C9B
AccurateRip v1 signature : 6A043A2A
AccurateRip v2 signature : 7C517627
->Track not present in AccurateRip database.
Statistics
Read error : 0
Jitter error (maybe fixed) : 0
Retry sector count : 0
Damaged sector count : 0
Track 03
Filename : /Users/anch/Music/FLAC/Mihaly Dresch Quartet - 2007 - Árgyelus [MP3 320]/03 - Orokseg.mp3
/Users/anch/Music/FLAC/Mihaly Dresch Quartet - 2007 - Árgyelus [MP3 V0]/03 - Orokseg.mp3
/Users/anch/Music/FLAC/Mihaly Dresch Quartet - 2007 - Árgyelus [FLAC]/03 - Orokseg.flac
Track gain : -4.82 dB
Peak : 0.977264
CRC32 hash (test run) : D63CA438
CRC32 hash : D63CA438
CRC32 hash (skip zero) : 79E1D11A
AccurateRip v1 signature : 92149150
AccurateRip v2 signature : BBC38C08
->Track not present in AccurateRip database.
Statistics
Read error : 0
Jitter error (maybe fixed) : 0
Retry sector count : 0
Damaged sector count : 0
Track 04
Filename : /Users/anch/Music/FLAC/Mihaly Dresch Quartet - 2007 - Árgyelus [MP3 320]/04 - Hazafele.mp3
/Users/anch/Music/FLAC/Mihaly Dresch Quartet - 2007 - Árgyelus [MP3 V0]/04 - Hazafele.mp3
/Users/anch/Music/FLAC/Mihaly Dresch Quartet - 2007 - Árgyelus [FLAC]/04 - Hazafele.flac
Pre-gap length : 00:03:36
Track gain : -2.51 dB
Peak : 0.897491
CRC32 hash (test run) : 97E23E02
CRC32 hash : 97E23E02
CRC32 hash (skip zero) : 019389E3
AccurateRip v1 signature : 99D29C24
AccurateRip v2 signature : 70D93856
->Track not present in AccurateRip database.
Statistics
Read error : 0
Jitter error (maybe fixed) : 0
Retry sector count : 0
Damaged sector count : 0
Track 05
Filename : /Users/anch/Music/FLAC/Mihaly Dresch Quartet - 2007 - Árgyelus [MP3 320]/05 - Árgyelus.mp3
/Users/anch/Music/FLAC/Mihaly Dresch Quartet - 2007 - Árgyelus [MP3 V0]/05 - Árgyelus.mp3
/Users/anch/Music/FLAC/Mihaly Dresch Quartet - 2007 - Árgyelus [FLAC]/05 - Árgyelus.flac
Pre-gap length : 00:02:48
Track gain : -5.05 dB
Peak : 0.977264
CRC32 hash (test run) : D72A8BE9
CRC32 hash : D72A8BE9
CRC32 hash (skip zero) : E1592683
AccurateRip v1 signature : A8E67A1E
AccurateRip v2 signature : 7F945B06
->Track not present in AccurateRip database.
Statistics
Read error : 0
Jitter error (maybe fixed) : 0
Retry sector count : 0
Damaged sector count : 0
Track 06
Filename : /Users/anch/Music/FLAC/Mihaly Dresch Quartet - 2007 - Árgyelus [MP3 320]/06 - Ciganyos.mp3
/Users/anch/Music/FLAC/Mihaly Dresch Quartet - 2007 - Árgyelus [MP3 V0]/06 - Ciganyos.mp3
/Users/anch/Music/FLAC/Mihaly Dresch Quartet - 2007 - Árgyelus [FLAC]/06 - Ciganyos.flac
Pre-gap length : 00:03:00
Track gain : -3.76 dB
Peak : 0.977234
CRC32 hash (test run) : 9B77F061
CRC32 hash : 9B77F061
CRC32 hash (skip zero) : 95056C6C
AccurateRip v1 signature : 1A2957D1
AccurateRip v2 signature : 8B13DD74
->Track not present in AccurateRip database.
Statistics
Read error : 0
Jitter error (maybe fixed) : 0
Retry sector count : 0
Damaged sector count : 0
Track 07
Filename : /Users/anch/Music/FLAC/Mihaly Dresch Quartet - 2007 - Árgyelus [MP3 320]/07 - In a sentimental mood.mp3
/Users/anch/Music/FLAC/Mihaly Dresch Quartet - 2007 - Árgyelus [MP3 V0]/07 - In a sentimental mood.mp3
/Users/anch/Music/FLAC/Mihaly Dresch Quartet - 2007 - Árgyelus [FLAC]/07 - In a sentimental mood.flac
Pre-gap length : 00:03:00
Track gain : -2.54 dB
Peak : 0.857880
CRC32 hash (test run) : 4CBEBC36
CRC32 hash : 4CBEBC36
CRC32 hash (skip zero) : F691BD8F
AccurateRip v1 signature : B8B04F96
AccurateRip v2 signature : F16AF213
->Track not present in AccurateRip database.
Statistics
Read error : 0
Jitter error (maybe fixed) : 0
Retry sector count : 0
Damaged sector count : 0
No errors occurred
End of status report
 
Содержание индексной карты (.CUE)
TITLE "Argyelus"
PERFORMER "Mihaly Dresch Quartet"
CATALOG 5998309301315
REM GENRE "Jazz"
REM DATE "2007"
REM DISCNUMBER 1
REM TOTALDISCS 1
REM DISCID 5D0C9407
REM REPLAYGAIN_ALBUM_GAIN -4.07 dB
REM REPLAYGAIN_ALBUM_PEAK 0.977264
FILE "01 - Toredek (Fragment).flac" WAVE
TRACK 01 AUDIO
TITLE "Toredek (Fragment)"
PERFORMER "Mihaly Dresch Quartet"
SONGWRITER "Mihaly Dresch"
ISRC HUA150613101
REM REPLAYGAIN_TRACK_GAIN -2.85 dB
REM REPLAYGAIN_TRACK_PEAK 0.977264
INDEX 01 00:00:00
TRACK 02 AUDIO
TITLE "Szeki katonabucsuztato (Soldier's farewell from Szek village)"
PERFORMER "Mihaly Dresch Quartet"
SONGWRITER "Mihaly Dresch"
ISRC HUA150613102
REM REPLAYGAIN_TRACK_GAIN -1.76 dB
REM REPLAYGAIN_TRACK_PEAK 0.630615
INDEX 00 09:36:40
FILE "02 - Szeki katonabucsuztato (Soldier's farewell from Szek village).flac" WAVE
INDEX 01 00:00:00
FILE "03 - Orokseg (Heritage).flac" WAVE
TRACK 03 AUDIO
TITLE "Orokseg (Heritage)"
PERFORMER "Mihaly Dresch Quartet"
SONGWRITER "Mihaly Dresch"
ISRC HUA150613103
REM REPLAYGAIN_TRACK_GAIN -4.82 dB
REM REPLAYGAIN_TRACK_PEAK 0.977264
INDEX 01 00:00:00
TRACK 04 AUDIO
TITLE "Hazafele (Homeward bound)"
PERFORMER "Mihaly Dresch Quartet"
SONGWRITER "Mihaly Dresch"
ISRC HUA150613104
REM REPLAYGAIN_TRACK_GAIN -2.51 dB
REM REPLAYGAIN_TRACK_PEAK 0.897491
INDEX 00 10:24:39
FILE "04 - Hazafele (Homeward bound).flac" WAVE
INDEX 01 00:00:00
TRACK 05 AUDIO
TITLE "Argyelus"
PERFORMER "Mihaly Dresch Quartet"
SONGWRITER "Mihaly Dresch"
ISRC HUA150613105
REM REPLAYGAIN_TRACK_GAIN -5.05 dB
REM REPLAYGAIN_TRACK_PEAK 0.977264
INDEX 00 08:03:00
FILE "05 - Argyelus.flac" WAVE
INDEX 01 00:00:00
TRACK 06 AUDIO
TITLE "Ciganyos (Archie-nak) (Tziganesque (for Archie))"
PERFORMER "Mihaly Dresch Quartet"
SONGWRITER "Mihaly Dresch"
ISRC HUA150613106
REM REPLAYGAIN_TRACK_GAIN -3.76 dB
REM REPLAYGAIN_TRACK_PEAK 0.977234
INDEX 00 07:13:27
FILE "06 - Ciganyos (Archie-nak) (Tziganesque (for Archie)).flac" WAVE
INDEX 01 00:00:00
TRACK 07 AUDIO
TITLE "In a sentimental mood"
PERFORMER "Mihaly Dresch Quartet"
SONGWRITER "Mihaly Dresch"
ISRC HUA150613107
REM REPLAYGAIN_TRACK_GAIN -2.54 dB
REM REPLAYGAIN_TRACK_PEAK 0.857880
INDEX 00 08:52:00
FILE "07 - In a sentimental mood.flac" WAVE
INDEX 01 00:00:00
 
4 изумительных, бесподобных шедевра этно-джаза (самые искренние рекомендации!)
Anouar Brahem - 2005 - Le Voyage de Sahar
(трио: oud, piano, accordeon)
В отличие от других альбомов Anouar Brahem, "Le Voyage De Sahar" приковывает внимание от первой до последней секунды своей глубиной и совершенством мелодий.
"Тончайшие ароматы звуков. Все слова - ничто!" (c)
Глубина... Какая глубина! Не хочется выныривать из этой ориентальной бездны...
P.S. Для меня этот альбом лучший от лэйбла ECM, лучший этно-джазовый диск и любимое трио вообще!
Oregon - 1985 - Crossing
Этот альбом заставляет будто рождаться заново каждый раз после прослушивания... Настолько он для меня гениален и органичен. Наверное, именно здесь самые по-орегоновски притягательные гитарные партии лидера коллектива Ralph Towner и гобоиста и кларнетиста Paul McCandless. Цельность композиторской и импровизационной мысли. А работа перкуссиониста и ситариста! А как он записан! Чудо!
John Zorn - Masada Chamber Ensembles - 1996 - Bar Kokhba (2cd)
Комментарий из раздачи: "... Композиции восхитительны по своей мелодичной структуре - тонки, нежны и неописуемо красивы. Поистине волшебная музыка, пронизанная самыми светлыми (пусть даже местами и грустноватыми) чувствами, вводящая даже искушенного слушателя в области самых трепетных наслаждений."
Также хочется отметить удивительно сбалансированный звук альбома, красоту тембров инструментов и безупречный талант каждого исполнителя! После прослушивания чувствуешь себя в состоянии невесомости...
John Zorn - Filmworks IX - 2000 - Trembling Before G-d
Комментарий из раздачи: "Потрясающий, эмоциональный и проникновенный альбом..."
Для меня здесь одни из самых завораживающих партий кларнета в этно-джазе и музыке вообще! Как будто попал в сказку 1001 ночи...
Желаю вам новых ярких музыкальных открытий!
Mihaly Dresch, Dresch Quartet на трекереРаздаю только с 10 вечера по Москве и до 4 утра , т.к трафик ограничен. Поэтому большая просьба оставаться на раздаче. Спасибо!
19:19
290
Нет комментариев. Ваш будет первым!