Поиск

(Ethnic jazz) [CD] Mesut Ali & Mustafa Kos - Missing Oriental Connection - 1999, FLAC (tracks+.cue), lossless

(Ethnic jazz) [CD] Mesut Ali & Mustafa Kos - Missing Oriental Connection - 1999, FLAC (tracks+.cue), lossless

Mesut Ali & Mustafa Kos - Missing Oriental Connection - 1999
Жанр: Ethnic jazz
Носитель: CD (compilation, archival)
Страна-производитель диска (релиза): Turkey
Год издания: 1999
Издатель (лейбл): Ada Müzik
Номер по каталогу: No number
Страна исполнителя (группы) :Multynational
Дата / место записи: in Paris and Berlin (Marth 1997)
Аудио кодек: FLAC (*.flac)
Тип рипа: (tracks + .cue)
Битрейт аудио: lossless
Наличие сканов в содержимом раздачи: full scans
Продолжительность: 51:56
Источник (релизер): dasport (REDacted)
Трэклист:
01 - Ararat - Ararat (07:52)
02 - Çingeneler Zamanı - Time of the Gypsies (06:17)
03 - Çayeli'nden Öteye - Beyond Cayeli (06:47)
04 - Makedonya - Macedonia (05:21)
05 - Aziz Nesin'e - To Aziz Nesin (04:09)
06 - Tamzara - Tamzara (05:57)
07 - Bekle Beni Geleceğim İstanbul'a - Wait for me I'll come to Istanbul (05:08)
08 - Bizim Düğün Ne Zaman - When is our wedding? (10:21)
 
Лог создания рипа (21. May 2015)
Exact Audio Copy V1.0 beta 3 from 29. August 2011
EAC extraction logfile from 21. May 2015, 2:13
Mesut Ali & Mustafa Kos / Missing
Used drive : HL-DT-STDVDRAM GSA-T20N Adapter: 0 ID: 0
Read mode : Secure
Utilize accurate stream : Yes
Defeat audio cache : Yes
Make use of C2 pointers : No
Read offset correction : 667
Overread into Lead-In and Lead-Out : No
Fill up missing offset samples with silence : Yes
Delete leading and trailing silent blocks : No
Null samples used in CRC calculations : Yes
Used interface : Native Win32 interface for Win NT & 2000
Gap handling : Appended to previous track
Used output format : User Defined Encoder
Selected bitrate : 1024 kBit/s
Quality : High
Add ID3 tag : No
Command line compressor : C:\Program Files (x86)\Exact Audio Copy\Flac\flac.exe
Additional command line options : -8 -V -T "ARTIST=%artist%" -T "TITLE=%title%" -T "ALBUM=%albumtitle%" -T "DATE=%year%" -T "TRACKNUMBER=%tracknr%" -T "GENRE=%genre%" -T "PERFORMER=%albuminterpret%" -T "COMPOSER=%composer%" %haslyrics%--tag-from-file=LYRICS="%lyricsfile%"%haslyrics% -T "ALBUMARTIST=%albumartist%" -T "DISCNUMBER=%cdnumber%" -T "TOTALDISCS=%totalcds%" -T "TOTALTRACKS=%numtracks%" -T "COMMENT=%comment%" %source% -o %dest%
TOC of the extracted CD
Track | Start | Length | Start sector | End sector
---------------------------------------------------------
1 | 0:00.00 | 7:52.35 | 0 | 35434
2 | 7:52.35 | 6:17.12 | 35435 | 63721
3 | 14:09.47 | 6:47.35 | 63722 | 94281
4 | 20:57.07 | 5:21.23 | 94282 | 118379
5 | 26:18.30 | 4:09.47 | 118380 | 137101
6 | 30:28.02 | 5:57.30 | 137102 | 163906
7 | 36:25.32 | 5:08.48 | 163907 | 187054
8 | 41:34.05 | 10:22.27 | 187055 | 233731
Track 1
Filename D:\WhatCD\Mesut Ali & Mustafa Kos - Missing (1999) [FLAC]\01 - Ararat.wav
Pre-gap length 0:00:02.00
Peak level 99.9 %
Extraction speed 2.6 X
Track quality 100.0 %
Test CRC E7DBD581
Copy CRC E7DBD581
Track not present in AccurateRip database
Copy OK
Track 2
Filename D:\WhatCD\Mesut Ali & Mustafa Kos - Missing (1999) [FLAC]\02 - Çingeneler Zamanı.wav
Peak level 99.9 %
Extraction speed 2.8 X
Track quality 99.9 %
Test CRC 1410F629
Copy CRC 1410F629
Track not present in AccurateRip database
Copy OK
Track 3
Filename D:\WhatCD\Mesut Ali & Mustafa Kos - Missing (1999) [FLAC]\03 - Çayeli'nden Öteye.wav
Pre-gap length 0:00:01.29
Peak level 99.9 %
Extraction speed 3.4 X
Track quality 100.0 %
Test CRC 8401A3EF
Copy CRC 8401A3EF
Track not present in AccurateRip database
Copy OK
Track 4
Filename D:\WhatCD\Mesut Ali & Mustafa Kos - Missing (1999) [FLAC]\04 - Makedonya.wav
Pre-gap length 0:00:01.49
Peak level 99.9 %
Extraction speed 3.6 X
Track quality 100.0 %
Test CRC A8FA1788
Copy CRC A8FA1788
Track not present in AccurateRip database
Copy OK
Track 5
Filename D:\WhatCD\Mesut Ali & Mustafa Kos - Missing (1999) [FLAC]\05 - Aziz Nesin'e.wav
Pre-gap length 0:00:01.90
Peak level 99.9 %
Extraction speed 3.2 X
Track quality 99.9 %
Test CRC 52629A4D
Copy CRC 52629A4D
Track not present in AccurateRip database
Copy OK
Track 6
Filename D:\WhatCD\Mesut Ali & Mustafa Kos - Missing (1999) [FLAC]\06 - Tamzara.wav
Peak level 99.9 %
Extraction speed 4.1 X
Track quality 100.0 %
Test CRC 044FB9A6
Copy CRC 044FB9A6
Track not present in AccurateRip database
Copy OK
Track 7
Filename D:\WhatCD\Mesut Ali & Mustafa Kos - Missing (1999) [FLAC]\07 - Bekle Beni Geleceğim İstanbul'a.wav
Pre-gap length 0:00:01.33
Peak level 99.9 %
Extraction speed 4.2 X
Track quality 100.0 %
Test CRC 306EAF19
Copy CRC 306EAF19
Track not present in AccurateRip database
Copy OK
Track 8
Filename D:\WhatCD\Mesut Ali & Mustafa Kos - Missing (1999) [FLAC]\08 - Bizim Düğün Ne Zaman.wav
Peak level 99.9 %
Extraction speed 4.8 X
Track quality 100.0 %
Test CRC 134BF72B
Copy CRC 134BF72B
Track not present in AccurateRip database
Copy OK
None of the tracks are present in the AccurateRip database
No errors occurred
End of status report
---- CUETools DB Plugin V2.1.4
[CTDB TOCID: iMb35am1V9YaYzY_M.vl2s76u8I-] disk not present in database
Submit result: iMb35am1V9YaYzY_M.vl2s76u8I- has been uploaded
==== Log checksum 9826D34A149F3DB1CB16AA2F0F888DF18D29FA811838710021565046F2BD180E ====
 
Содержание индексной карты (.CUE):
REM GENRE Fusion
REM DATE 1999
REM DISCID 710C2C08
REM COMMENT "ExactAudioCopy v1.0b3"
PERFORMER "Mesut Ali & Mustafa Kos"
TITLE "Missing"
FILE "01 - Ararat.wav" WAVE
TRACK 01 AUDIO
TITLE "Ararat"
PERFORMER "Mesut Ali & Mustafa Kos"
INDEX 01 00:00:00
FILE "02 - Çingeneler Zamanı.wav" WAVE
TRACK 02 AUDIO
TITLE "Çingeneler Zamanı"
PERFORMER "Mesut Ali & Mustafa Kos"
INDEX 01 00:00:00
TRACK 03 AUDIO
TITLE "Çayeli'nden Öteye"
PERFORMER "Mesut Ali & Mustafa Kos"
INDEX 00 06:15:65
FILE "03 - Çayeli'nden Öteye.wav" WAVE
INDEX 01 00:00:00
TRACK 04 AUDIO
TITLE "Makedonya"
PERFORMER "Mesut Ali & Mustafa Kos"
INDEX 00 06:45:73
FILE "04 - Makedonya.wav" WAVE
INDEX 01 00:00:00
TRACK 05 AUDIO
TITLE "Aziz Nesin'e"
PERFORMER "Mesut Ali & Mustafa Kos"
INDEX 00 05:19:30
FILE "05 - Aziz Nesin'e.wav" WAVE
INDEX 01 00:00:00
FILE "06 - Tamzara.wav" WAVE
TRACK 06 AUDIO
TITLE "Tamzara"
PERFORMER "Mesut Ali & Mustafa Kos"
INDEX 01 00:00:00
TRACK 07 AUDIO
TITLE "Bekle Beni Geleceğim İstanbul'a"
PERFORMER "Mesut Ali & Mustafa Kos"
INDEX 00 05:56:05
FILE "07 - Bekle Beni Geleceğim İstanbul'a.wav" WAVE
INDEX 01 00:00:00
FILE "08 - Bizim Düğün Ne Zaman.wav" WAVE
TRACK 08 AUDIO
TITLE "Bizim Düğün Ne Zaman"
PERFORMER "Mesut Ali & Mustafa Kos"
INDEX 01 00:00:00
 
Лог проверки качества
-----------------------
DON'T MODIFY THIS FILE
-----------------------
PERFORMER: auCDtect Task Manager, ver. 1.6.0 RC1 build 1.6.0.1
Copyright (c) 2008-2010 y-soft. All rights reserved
http://y-soft.org
ANALYZER: auCDtect: CD records authenticity detector, version 0.8.2
Copyright (c) 2004 Oleg Berngardt. All rights reserved.
Copyright (c) 2004 Alexander Djourik. All rights reserved.
FILE: 08 - Bizim Düğün Ne Zaman.flac
Size: 67373707 Hash: 941E02BC19E8141D6EAD8DC9D4F4A556 Accuracy: -m0
Conclusion: CDDA 100%
Signature: ED7648EB88203955EECFE664D8E44D670C77F6A7
FILE: 07 - Bekle Beni Geleceğim İstanbul'a.flac
Size: 35131260 Hash: 073AECFFF3DB700FBE3CF690C5A0E401 Accuracy: -m0
Conclusion: CDDA 100%
Signature: 42BE46F370AE3D120875BBD9A811B06E6B631B9B
FILE: 06 - Tamzara.flac
Size: 34509590 Hash: 9B4FCBF48666E00E047010F193E706C8 Accuracy: -m0
Conclusion: CDDA 100%
Signature: B90F6CFC9698816CDB9280EFE6FE80B7D89DAA54
FILE: 05 - Aziz Nesin'e.flac
Size: 28401053 Hash: 7816EC9C3A3DD69A5FC2F0BF95D5D9E8 Accuracy: -m0
Conclusion: CDDA 100%
Signature: 4E1575F289D957328991578E016B3CF48AFC5828
FILE: 04 - Makedonya.flac
Size: 34804395 Hash: DB5FDEB2DF0C941F66A18418CB082443 Accuracy: -m0
Conclusion: CDDA 100%
Signature: D70695A69D6FA769804475598880114057A27AAE
FILE: 03 - Çayeli'nden Öteye.flac
Size: 46780669 Hash: 993138F0C63524151805691DD17B2386 Accuracy: -m0
Conclusion: CDDA 100%
Signature: 7278A3EC44FA55E483AD5ADDF03CB0AE1EA6C619
FILE: 02 - Çingeneler Zamanı.flac
Size: 45589948 Hash: 1F829C6E0C99D19B80B44121D678085B Accuracy: -m0
Conclusion: CDDA 100%
Signature: BDDE94E0505E491146C6A204117FEE8FD118B3CA
FILE: 01 - Ararat.flac
Size: 47978773 Hash: 36FD8F610A20B060C1B953A3214ABD98 Accuracy: -m0
Conclusion: CDDA 100%
Signature: 519AA1BE1D22B3296195C727D92E588CE286BFDD
 
Замер динамического диапазона
foobar2000 1.3.10 / Замер динамического диапазона (DR) 1.1.1
Дата отчёта: 2017-06-06 06:46:02
--------------------------------------------------------------------------------
Анализ: Mesut Ali & Mustafa Kos / Missing
--------------------------------------------------------------------------------
DR Пики RMS Продолжительность трека
--------------------------------------------------------------------------------
DR14 0.00 дБ -17.03 дБ 7:52 01-Ararat
DR9 0.00 дБ -11.21 дБ 6:17 02-Çingeneler Zamanı
DR8 0.00 дБ -10.12 дБ 6:47 03-Çayeli'nden Öteye
DR10 0.00 дБ -12.63 дБ 5:21 04-Makedonya
DR9 0.00 дБ -10.80 дБ 4:10 05-Aziz Nesin'e
DR11 0.00 дБ -14.72 дБ 5:57 06-Tamzara
DR10 0.00 дБ -11.48 дБ 5:09 07-Bekle Beni Geleceğim İstanbul'a
DR10 0.00 дБ -13.51 дБ 10:22 08-Bizim Düğün Ne Zaman
--------------------------------------------------------------------------------
Количество треков: 8
Реальные значения DR: DR10
Частота: 44100 Гц
Каналов: 2
Разрядность: 16
Битрейт: 866 кбит/с
Кодек: FLAC
================================================================================

 
Матрица
 
Back
 
Состав
Mesut Ali (Turkey) - percussion
Mustafa Kos (Turkey) - drums, guitar
Hans Hartman (Swiss) - contrabass
Mustafa Sarisin (Turkey) - bass guitar
Fuasi Abdul Khaliq (U.S.A.) - sax
Jan Von Klevitz (Germany) - sax
Remzi Emek (Turkey) - trombone
Ahmet Charuqi (Algeria) - guitar
Erst Bier (Germany) - drums
Toni Bianco (U.S.A.) - drums
Simon Nabatov (U.S.A.) - keyboards

01:04
362
Нет комментариев. Ваш будет первым!