Поиск

(Ethnic Jazz) Amos Hoffman - Carving (2010) - 2010, FLAC (tracks+.cue), lossless

Треклист:
Amos Hoffman - Carving (2010)
Жанр: Ethnic Jazz
Год выпуска диска: 2010
Производитель диска: Razdaz Records, Israel
Страна исполнителя: Israel
Тип: Studio
Аудио кодек: FLAC
Тип рипа: tracks+.cue
Битрейт аудио: lossless
Продолжительность: 52:48
Трэклист:
01 - Monique
02 - Brown Sugar
03 - A Minute To Smell The Flowers
04 - Rea
05 - Self Portrait
06 - Ras
07 - All Along
08 - Uncle Charlie
09 - The Well
10 - Abe Baby
11 - Away
Об исполнителе:
http://www.myspace.com/amoshoffman
http://www.allaboutjazz.com/php/musician.php?id=16745
Об альбоме:
http://www.razdazrecordz.com/catalogueitem.php?cid=1
http://www.yosmusic.com/article.asp?id=6904
Состав:
Amos Hoffman - Guitar & Oud
Gilad Abro - Contrabass
Amir Bresler - Drums
Ilan Katchka - Percussions
Ilan Salem - Flute, Alto Flute
Avishai Cohen - Electric Bass on track #6
and Calabash on track #8
Itamar Doari - Darbuka on track #8
Shai Maestro - Piano on track #11
 
EAC Log
Exact Audio Copy V0.99 prebeta 4 from 23. January 2008
EAC extraction logfile from 19. June 2010, 10:17
Amos Hoffman / Carving
Used drive : HL-DT-STDVD-RAM GH22NP20 Adapter: 0 ID: 0
Read mode : Secure
Utilize accurate stream : Yes
Defeat audio cache : Yes
Make use of C2 pointers : No
Read offset correction : 102
Overread into Lead-In and Lead-Out : No
Fill up missing offset samples with silence : Yes
Delete leading and trailing silent blocks : No
Null samples used in CRC calculations : Yes
Used interface : Native Win32 interface for Win NT & 2000
Gap handling : Appended to previous track
Used output format : User Defined Encoder
Selected bitrate : 128 kBit/s
Quality : High
Add ID3 tag : No
Command line compressor : D:\Download\Usage\Exact Audio Copy\Flac\flac.exe
Additional command line options : -V -8 -T "artist=%a" -T "title=%t" -T "album=%g" -T "date=%y" -T "tracknumber=%n" -T "genre=%m" %s
TOC of the extracted CD
Track | Start | Length | Start sector | End sector
---------------------------------------------------------
1 | 0:00.00 | 7:04.34 | 0 | 31833
2 | 7:04.34 | 4:10.43 | 31834 | 50626
3 | 11:15.02 | 4:22.35 | 50627 | 70311
4 | 15:37.37 | 4:07.68 | 70312 | 88904
5 | 19:45.30 | 5:42.14 | 88905 | 114568
6 | 25:27.44 | 4:22.31 | 114569 | 134249
7 | 29:50.00 | 3:18.14 | 134250 | 149113
8 | 33:08.14 | 3:36.58 | 149114 | 165371
9 | 36:44.72 | 4:19.06 | 165372 | 184802
10 | 41:04.03 | 6:10.45 | 184803 | 212597
11 | 47:14.48 | 5:38.31 | 212598 | 237978
Track 1
Filename D:\EAC\01 - Monique.wav
Pre-gap length 0:00:02.00
Peak level 96.8 %
Track quality 100.0 %
Test CRC 05D6EA04
Copy CRC 05D6EA04
Track not present in AccurateRip database
Copy OK
Track 2
Filename D:\EAC\02 - Brown Sugar.wav
Peak level 98.1 %
Track quality 100.0 %
Test CRC 1A10EEFB
Copy CRC 1A10EEFB
Track not present in AccurateRip database
Copy OK
Track 3
Filename D:\EAC\03 - A Minute To Smell The Flowers.wav
Peak level 78.5 %
Track quality 100.0 %
Test CRC E57D6EA1
Copy CRC E57D6EA1
Track not present in AccurateRip database
Copy OK
Track 4
Filename D:\EAC\04 - Rea.wav
Peak level 100.0 %
Track quality 100.0 %
Test CRC 2FE392AF
Copy CRC 2FE392AF
Track not present in AccurateRip database
Copy OK
Track 5
Filename D:\EAC\05 - Self Portrait.wav
Peak level 98.7 %
Track quality 100.0 %
Test CRC FA9D7F2B
Copy CRC FA9D7F2B
Track not present in AccurateRip database
Copy OK
Track 6
Filename D:\EAC\06 - Ras.wav
Peak level 97.8 %
Track quality 100.0 %
Test CRC 6AD73CA4
Copy CRC 6AD73CA4
Track not present in AccurateRip database
Copy OK
Track 7
Filename D:\EAC\07 - All Along.wav
Peak level 73.3 %
Track quality 100.0 %
Test CRC 6D1A2F2B
Copy CRC 6D1A2F2B
Track not present in AccurateRip database
Copy OK
Track 8
Filename D:\EAC\08 - Uncle Charlie.wav
Peak level 93.2 %
Track quality 100.0 %
Test CRC 6604D692
Copy CRC 6604D692
Track not present in AccurateRip database
Copy OK
Track 9
Filename D:\EAC\09 - The Well.wav
Peak level 64.5 %
Track quality 100.0 %
Test CRC 1CB8A7B7
Copy CRC 1CB8A7B7
Track not present in AccurateRip database
Copy OK
Track 10
Filename D:\EAC\10 - Abe Baby.wav
Peak level 97.9 %
Track quality 100.0 %
Test CRC 4D5B5611
Copy CRC 4D5B5611
Track not present in AccurateRip database
Copy OK
Track 11
Filename D:\EAC\11 - Away.wav
Peak level 80.0 %
Track quality 100.0 %
Test CRC 7772DE35
Copy CRC 7772DE35
Track not present in AccurateRip database
Copy OK
None of the tracks are present in the AccurateRip database
No errors occurred
End of status report
 
CUE Sheet
REM GENRE Jazz
REM DATE 2010
REM DISCID AE0C650B
REM COMMENT "ExactAudioCopy v0.99pb4"
FILE "01 - Monique.wav" WAVE
TRACK 01 AUDIO
INDEX 01 00:00:00
FILE "02 - Brown Sugar.wav" WAVE
TRACK 02 AUDIO
INDEX 01 00:00:00
FILE "03 - A Minute To Smell The Flowers.wav" WAVE
TRACK 03 AUDIO
INDEX 01 00:00:00
FILE "04 - Rea.wav" WAVE
TRACK 04 AUDIO
INDEX 01 00:00:00
FILE "05 - Self Portrait.wav" WAVE
TRACK 05 AUDIO
INDEX 01 00:00:00
FILE "06 - Ras.wav" WAVE
TRACK 06 AUDIO
INDEX 01 00:00:00
FILE "07 - All Along.wav" WAVE
TRACK 07 AUDIO
INDEX 01 00:00:00
FILE "08 - Uncle Charlie.wav" WAVE
TRACK 08 AUDIO
INDEX 01 00:00:00
FILE "09 - The Well.wav" WAVE
TRACK 09 AUDIO
INDEX 01 00:00:00
FILE "10 - Abe Baby.wav" WAVE
TRACK 10 AUDIO
INDEX 01 00:00:00
FILE "11 - Away.wav" WAVE
TRACK 11 AUDIO
INDEX 01 00:00:00
15:39
316
Нет комментариев. Ваш будет первым!