Поиск

(Ethnic Fusion / ECM) Savina Yannatou & Primavera En Salonico - Terra Nostra (ECM 1856) - 2001, FLAC (image+.cue), lossless

Savina Yannatou & Primavera En Salonico - Terra Nostra (ECM 1856)
Жанр: Ethnic Fusion / ECM
Год выпуска диска: 2001
Производитель диска: USA
Аудио кодек: FLAC
Тип рипа: image+.cue
Битрейт аудио: lossless
Продолжительность: 1:14:25
Savina Yannatou voice
Lamia Bedioui voice
Primavera en Salonico
Lefteris Ahgouridakis percussion
Yannis Alexandris oud, guitar, tamboura
Kostas Vomvolos Kanoun, accordion, caliba, tamboura
Kyriakos Gouventas violin
Harris Lambrakis nay
Michalis Siganidis double-bass
Antonis Maratos percussion
Tassos Misyrlis cello
With the moon I'm walking
Ivan Nadõnka Dúmashe
A Fairy's Love Song
Ballo sardo
Yiallah Tnem Rima
El Barquero
No Seas Capritchioza
Chant Des Belles Mères
Schubho Lhaw Qolo
I've told you and I say again
Tres Hermanicas Eran
Los Bilbilicos
Hey het
Ah Mon Dié
Close Your Eyelids and See
Adieu Paure Carnavas
Wa Habibi
Madonna de la Grazia
Kadifé
Jaco
Recorded November 2001
ECM 1856
 
EAC Report
Exact Audio Copy V0.99 prebeta 4 from 23. January 2008
EAC extraction logfile from 21. June 2008, 19:32
Savina Yannatou & Primavera En Salonico / Terra Nostra
Used drive : TSSTcorpCD/DVDW SH-S182M Adapter: 2 ID: 1
Read mode : Secure
Utilize accurate stream : Yes
Defeat audio cache : Yes
Make use of C2 pointers : No
Read offset correction : 6
Overread into Lead-In and Lead-Out : No
Fill up missing offset samples with silence : Yes
Delete leading and trailing silent blocks : No
Null samples used in CRC calculations : No
Used interface : Installed external ASPI interface
Used output format : User Defined Encoder
Selected bitrate : 768 kBit/s
Quality : High
Add ID3 tag : No
Command line compressor : C:\Program Files\Exact Audio Copy\FLAC\FLAC.EXE
Additional command line options : -6 -V -T "ARTIST=%a" -T "TITLE=%t" -T "ALBUM=%g" -T "DATE=%y" -T "TRACKNUMBER=%n" -T "GENRE=%m" -T "COMMENT=%e" %s -o %d
TOC of the extracted CD
Track | Start | Length | Start sector | End sector
---------------------------------------------------------
1 | 0:00.00 | 2:44.02 | 0 | 12301
2 | 2:44.02 | 2:45.43 | 12302 | 24719
3 | 5:29.45 | 3:47.20 | 24720 | 41764
4 | 9:16.65 | 5:13.62 | 41765 | 65301
5 | 14:30.52 | 1:25.00 | 65302 | 71676
6 | 15:55.52 | 5:28.25 | 71677 | 96301
7 | 21:24.02 | 4:53.13 | 96302 | 118289
8 | 26:17.15 | 2:48.47 | 118290 | 130936
9 | 29:05.62 | 3:31.13 | 130937 | 146774
10 | 32:37.00 | 2:42.22 | 146775 | 158946
11 | 35:19.22 | 5:16.15 | 158947 | 182661
12 | 40:35.37 | 4:00.43 | 182662 | 200704
13 | 44:36.05 | 4:59.02 | 200705 | 223131
14 | 49:35.07 | 5:36.28 | 223132 | 248359
15 | 55:11.35 | 1:33.60 | 248360 | 255394
16 | 56:45.20 | 2:08.17 | 255395 | 265011
17 | 58:53.37 | 2:19.23 | 265012 | 275459
18 | 61:12.60 | 3:32.37 | 275460 | 291396
19 | 64:45.22 | 3:14.40 | 291397 | 305986
20 | 67:59.62 | 6:24.73 | 305987 | 334859
Range status and errors
Selected range
Filename F:\z\Savina Yannatou & Primavera En Salonico - Terra Nostra.wav
Peak level 99.9 %
Range quality 100.0 %
Copy CRC 4B1F7EAE
Copy OK
No errors occurred
AccurateRip summary
Track 1 not present in database
Track 2 not present in database
Track 3 not present in database
Track 4 not present in database
Track 5 not present in database
Track 6 not present in database
Track 7 not present in database
Track 8 not present in database
Track 9 not present in database
Track 10 not present in database
Track 11 not present in database
Track 12 not present in database
Track 13 not present in database
Track 14 not present in database
Track 15 not present in database
Track 16 not present in database
Track 17 not present in database
Track 18 not present in database
Track 19 not present in database
Track 20 not present in database
None of the tracks are present in the AccurateRip database
End of status report
02:49
299
Нет комментариев. Ваш будет первым!