Вы используете незарегистрированную версию компонента "Вкладки"!

Поиск

(Electronic, Rock, Experimental) [CD] Hoahio (Haco, Michiyo Yagi, Sachiko M) - Happy Mail - 1997, FLAC (tracks+.cue), lossless

(Electronic, Rock, Experimental) [CD] Hoahio (Haco, Michiyo Yagi, Sachiko M) - Happy Mail - 1997, FLAC (tracks+.cue), lossless
Треклист:
Hoahio / Happy Mail
Жанр: Electronic, Rock, Experimental
Носитель: CD
Страна-производитель диска: Japan
Год издания: 1997
Издатель (лейбл): Amoebic
Номер по каталогу: AMO-HOA01
Страна: Japan
Аудиокодек: FLAC (*.flac)
Тип рипа: tracks+.cue
Битрейт аудио: lossless
Продолжительность: 00:33:06
Источник (релизер): WEB
Наличие сканов в содержимом раздачи: нет
Треклист:
1 З д р а в с т в у й т е !
2 GINGA
3 Happy Mail (Voice – Atsushi Tsuyama)
4 Low-tech
5 Ricardo Sex
6 Less Than Lovers, More Than Friends
7 Morning Stars
8 TRAP Crickets
9 Fake Arabesque
 
Об исполнителе (группе)

Hoahio — женский коллектив из Токио, основанный Haco, известной
по своей работе в after dinner. В качестве остальных участников
выступили: Yagi Michiyo, чей дебютный сольный альбом " Shizuku "
вышел в 1999 году на Tzadik и Sachiko M, чья работа с
Otomo Yoshihide, принесла ей мировую известность.
 
Лог создания рипа
Exact Audio Copy V1.0 beta 3 from 29. August 2011
EAC extraction logfile from 24. August 2013, 19:20
Hoahio / Happy Mail [1997] [AMO-HOA01]
Used drive : PIONEER DVD-RW DVR-111L Adapter: 4 ID: 0
Read mode : Burst
Read offset correction : 48
Overread into Lead-In and Lead-Out : Yes
Fill up missing offset samples with silence : Yes
Delete leading and trailing silent blocks : No
Null samples used in CRC calculations : Yes
Used interface : Installed external ASPI interface
Gap handling : Appended to previous track
Used output format : User Defined Encoder
Selected bitrate : 896 kBit/s
Quality : High
Add ID3 tag : No
Command line compressor : C:\Program Files\FLAC\bin\flac.exe
Additional command line options : -T "artist=%artist%" -T "title=%title%" -T "album=%albumtitle%" -T "date=%year%" -T "tracknumber=%tracknr%" -T "tracktotal=%numtracks%" -8 %source%
TOC of the extracted CD
Track | Start | Length | Start sector | End sector
---------------------------------------------------------
1 | 0:00.00 | 0:04.37 | 0 | 336
2 | 0:04.37 | 0:34.27 | 337 | 2913
3 | 0:38.64 | 3:56.65 | 2914 | 20678
4 | 4:35.54 | 3:35.34 | 20679 | 36837
5 | 8:11.13 | 7:55.39 | 36838 | 72501
6 | 16:06.52 | 6:06.02 | 72502 | 99953
7 | 22:12.54 | 4:41.20 | 99954 | 121048
8 | 26:53.74 | 4:30.49 | 121049 | 141347
9 | 31:24.48 | 1:41.45 | 141348 | 148967
Track 1
Filename I:\EAC\Hoahio - 1997 - Happy Mail [1997] [AMO-HOA01] [FLAC]\01. З д р а в с т в у й т е !.wav
Pre-gap length 0:00:02.00
Peak level 23.5 %
Extraction speed 12.8 X
Test CRC 892C39AE
Copy CRC 892C39AE
Track not present in AccurateRip database
Copy OK
Track 2
Filename I:\EAC\Hoahio - 1997 - Happy Mail [1997] [AMO-HOA01] [FLAC]\02. Ginga.wav
Peak level 35.9 %
Extraction speed 15.7 X
Test CRC F3CC1FC5
Copy CRC F3CC1FC5
Accurately ripped (confidence 2) [9FEC7CEF] (AR v1)
Copy OK
Track 3
Filename I:\EAC\Hoahio - 1997 - Happy Mail [1997] [AMO-HOA01] [FLAC]\03. Happy Mail.wav
Pre-gap length 0:00:01.45
Peak level 99.8 %
Extraction speed 17.3 X
Test CRC DB26EACB
Copy CRC DB26EACB
Accurately ripped (confidence 2) [4239FAE9] (AR v1)
Copy OK
Track 4
Filename I:\EAC\Hoahio - 1997 - Happy Mail [1997] [AMO-HOA01] [FLAC]\04. Low-tech.wav
Pre-gap length 0:00:03.45
Peak level 99.5 %
Extraction speed 19.1 X
Test CRC 10F24FA0
Copy CRC 10F24FA0
Accurately ripped (confidence 2) [7AABFE1C] (AR v1)
Copy OK
Track 5
Filename I:\EAC\Hoahio - 1997 - Happy Mail [1997] [AMO-HOA01] [FLAC]\05. Ricardo Sex.wav
Pre-gap length 0:00:04.45
Peak level 41.8 %
Extraction speed 21.6 X
Test CRC C48C78F2
Copy CRC C48C78F2
Accurately ripped (confidence 2) [015000FA] (AR v1)
Copy OK
Track 6
Filename I:\EAC\Hoahio - 1997 - Happy Mail [1997] [AMO-HOA01] [FLAC]\06. Less than Lovers, More than Friends.wav
Pre-gap length 0:00:02.45
Peak level 63.0 %
Extraction speed 24.0 X
Test CRC 812A15EE
Copy CRC 812A15EE
Accurately ripped (confidence 2) [659D617A] (AR v1)
Copy OK
Track 7
Filename I:\EAC\Hoahio - 1997 - Happy Mail [1997] [AMO-HOA01] [FLAC]\07. Morning Stars.wav
Pre-gap length 0:00:05.45
Peak level 21.3 %
Extraction speed 26.0 X
Test CRC F97C53F6
Copy CRC F97C53F6
Accurately ripped (confidence 2) [196D98B9] (AR v1)
Copy OK
Track 8
Filename I:\EAC\Hoahio - 1997 - Happy Mail [1997] [AMO-HOA01] [FLAC]\08. TRAP Crickets.wav
Pre-gap length 0:00:19.45
Peak level 53.4 %
Extraction speed 27.6 X
Test CRC DEA689B4
Copy CRC DEA689B4
Accurately ripped (confidence 2) [0B1F1E4A] (AR v1)
Copy OK
Track 9
Filename I:\EAC\Hoahio - 1997 - Happy Mail [1997] [AMO-HOA01] [FLAC]\09. Fake Arabesque.wav
Pre-gap length 0:00:00.45
Peak level 29.7 %
Extraction speed 28.2 X
Test CRC C518B39A
Copy CRC C518B39A
Accurately ripped (confidence 2) [09E93DE9] (AR v1)
Copy OK
8 track(s) accurately ripped
1 track(s) not present in the AccurateRip database
Some tracks could not be verified as accurate
No errors occurred
End of status report
---- CUETools DB Plugin V2.1.4
[CTDB TOCID: mweLZkOnbUb0JYSl3RwqwTJYwVk-] found
Submit result: already submitted
Track | CTDB Status
1 | (1/1) Accurately ripped
2 | (1/1) Accurately ripped
3 | (1/1) Accurately ripped
4 | (1/1) Accurately ripped
5 | (1/1) Accurately ripped
6 | (1/1) Accurately ripped
7 | (1/1) Accurately ripped
8 | (1/1) Accurately ripped
9 | (1/1) Accurately ripped
==== Log checksum D7355AD99DA8856F761FAF4BA7EB585FF066D5C66B981402C4BB2DFF2F1B3C20 ====
 
Содержание индексной карты (.CUE)
REM DATE 1997
REM DISCID 7207C209
REM COMMENT "ExactAudioCopy v1.0b3"
CATALOG 0000000000000
PERFORMER "Hoahio"
TITLE "Happy Mail [1997] [AMO-HOA01]"
FILE "01. З д р а в с т в у й т е !.flac" WAVE
TRACK 01 AUDIO
TITLE ". . . . . . . . . . . . !"
PERFORMER "Hoahio"
FLAGS DCP
INDEX 01 00:00:00
FILE "02. Ginga.flac" WAVE
TRACK 02 AUDIO
TITLE "Ginga"
PERFORMER "Hoahio"
FLAGS DCP
INDEX 01 00:00:00
TRACK 03 AUDIO
TITLE "Happy Mail"
PERFORMER "Hoahio"
FLAGS DCP
INDEX 00 00:32:57
FILE "03. Happy Mail.flac" WAVE
INDEX 01 00:00:00
TRACK 04 AUDIO
TITLE "Low-tech"
PERFORMER "Hoahio"
FLAGS DCP
INDEX 00 03:53:20
FILE "04. Low-tech.flac" WAVE
INDEX 01 00:00:00
TRACK 05 AUDIO
TITLE "Ricardo Sex"
PERFORMER "Hoahio"
FLAGS DCP
INDEX 00 03:30:64
FILE "05. Ricardo Sex.flac" WAVE
INDEX 01 00:00:00
TRACK 06 AUDIO
TITLE "Less than Lovers, More than Friends"
PERFORMER "Hoahio"
FLAGS DCP
INDEX 00 07:52:69
FILE "06. Less than Lovers, More than Friends.flac" WAVE
INDEX 01 00:00:00
TRACK 07 AUDIO
TITLE "Morning Stars"
PERFORMER "Hoahio"
FLAGS DCP
INDEX 00 06:00:32
FILE "07. Morning Stars.flac" WAVE
INDEX 01 00:00:00
TRACK 08 AUDIO
TITLE "TRAP Crickets"
PERFORMER "Hoahio"
FLAGS DCP
INDEX 00 04:21:50
FILE "08. TRAP Crickets.flac" WAVE
INDEX 01 00:00:00
TRACK 09 AUDIO
TITLE "Fake Arabesque"
PERFORMER "Hoahio"
FLAGS DCP
INDEX 00 04:30:04
FILE "09. Fake Arabesque.flac" WAVE
INDEX 01 00:00:00
Any questions -> support@pro-jazz.com. По всем вопросам пишите -> support@pro-jazz.com
00:07
146
Нет комментариев. Ваш будет первым!