Поиск

(ECM, World Fusion, Classical / Acoustic / Flamenco / Guitar) [CD] Ferenc Snetberger - In Concert - 2016, FLAC (tracks+.cue), lossless

(ECM, World Fusion, Classical / Acoustic / Flamenco / Guitar) [CD] Ferenc Snetberger - In Concert - 2016, FLAC (tracks+.cue), lossless
Треклист:
Ferenc Snetberger - In Concert

Жанр: Classical / Acoustic / Flamenco / Guitar
Носитель: CD
Страна-производитель диска (релиза): Germany
Год издания: 2016
Издатель (лейбл): ECM Records
Номер по каталогу: ECM 2458
Страна исполнителя (группы): Salgótarján, Hungary
Аудиокодек: FLAC (*.flac)
Тип рипа: tracks+.cue
Битрейт аудио: lossless
Продолжительность: 01:00:15
Источник (релизер): ruskaval
Наличие сканов в содержимом раздачи: да

Ferenc Snétberger Guitar

01. Budapest - Part 1 [08:13]
02. Budapest - Part 2 [10:53]
03. Budapest - Part 3 [06:28]
04. Budapest - Part 4 [06:01]
05. Budapest - Part 5 [07:19]
06. Budapest - Part 6 [05:09]
07. Budapest - Part 7 [05:25]
08. Budapest - Part 8 [07:37]
09. Somewhere Over The Rainbow [03:06]

 
Лог создания рипа
Exact Audio Copy V1.0 beta 3 from 29. August 2011
EAC extraction logfile from 4. June 2016, 11:57
Ferenc Snetberger / In Concert
Used drive : PLDS DVD+-RW DU-8A4SH Adapter: 0 ID: 1
Read mode : Secure
Utilize accurate stream : Yes
Defeat audio cache : Yes
Make use of C2 pointers : No
Read offset correction : 6
Overread into Lead-In and Lead-Out : No
Fill up missing offset samples with silence : Yes
Delete leading and trailing silent blocks : No
Null samples used in CRC calculations : Yes
Used interface : Native Win32 interface for Win NT & 2000
Gap handling : Appended to previous track
Used output format : User Defined Encoder
Selected bitrate : 128 kBit/s
Quality : High
Add ID3 tag : No
Command line compressor : C:\Program Files (x86)\Exact Audio Copy\Flac\flac.exe
Additional command line options : -8 -V -T "ARTIST=%artist%" -T "TITLE=%title%" -T "ALBUM=%albumtitle%" -T "DATE=%year%" -T "TRACKNUMBER=%tracknr%" -T "TOTALTRACKS=%numtracks%" -T "GENRE=%genre%" -T "ALBUMARTIST=%albumartist%" -T "ALBUM ARTIST=%albumartist%" -T "COMMENT=EAC Secure Mode, Test & Copy, AccurateRip, FLAC -8" %source%
TOC of the extracted CD
Track | Start | Length | Start sector | End sector
---------------------------------------------------------
1 | 0:00.00 | 8:13.54 | 0 | 37028
2 | 8:13.54 | 10:53.08 | 37029 | 86011
3 | 19:06.62 | 6:28.59 | 86012 | 115170
4 | 25:35.46 | 6:01.27 | 115171 | 142272
5 | 31:36.73 | 7:19.38 | 142273 | 175235
6 | 38:56.36 | 5:09.61 | 175236 | 198471
7 | 44:06.22 | 5:25.05 | 198472 | 222851
8 | 49:31.27 | 7:37.46 | 222852 | 257172
9 | 57:08.73 | 3:06.49 | 257173 | 271171
Track 1
Filename D:\EAC\01 - Budapest - Part 1.wav
Pre-gap length 0:00:02.00
Peak level 79.2 %
Extraction speed 3.1 X
Track quality 100.0 %
Test CRC A3AEA5C5
Copy CRC A3AEA5C5
Accurately ripped (confidence 2) [E0FDE244] (AR v2)
Copy OK
Track 2
Filename D:\EAC\02 - Budapest - Part 2.wav
Peak level 73.0 %
Extraction speed 3.8 X
Track quality 100.0 %
Test CRC 5D965195
Copy CRC 5D965195
Accurately ripped (confidence 2) [283E4800] (AR v2)
Copy OK
Track 3
Filename D:\EAC\03 - Budapest - Part 3.wav
Peak level 70.8 %
Extraction speed 3.7 X
Track quality 99.9 %
Test CRC 3130F85B
Copy CRC 3130F85B
Accurately ripped (confidence 2) [7567A2B0] (AR v2)
Copy OK
Track 4
Filename D:\EAC\04 - Budapest - Part 4.wav
Peak level 79.2 %
Extraction speed 4.5 X
Track quality 100.0 %
Test CRC 8D08FBE1
Copy CRC 8D08FBE1
Accurately ripped (confidence 2) [782EE3D6] (AR v2)
Copy OK
Track 5
Filename D:\EAC\05 - Budapest - Part 5.wav
Peak level 79.2 %
Extraction speed 4.9 X
Track quality 100.0 %
Test CRC F273A6E5
Copy CRC F273A6E5
Accurately ripped (confidence 2) [E466358A] (AR v2)
Copy OK
Track 6
Filename D:\EAC\06 - Budapest - Part 6.wav
Peak level 64.2 %
Extraction speed 5.0 X
Track quality 100.0 %
Test CRC 194E4DC5
Copy CRC 194E4DC5
Accurately ripped (confidence 2) [319FA697] (AR v2)
Copy OK
Track 7
Filename D:\EAC\07 - Budapest - Part 7.wav
Peak level 79.2 %
Extraction speed 5.2 X
Track quality 100.0 %
Test CRC 2115DD94
Copy CRC 2115DD94
Accurately ripped (confidence 2) [6D30FCFC] (AR v2)
Copy OK
Track 8
Filename D:\EAC\08 - Budapest - Part 8.wav
Peak level 79.1 %
Extraction speed 5.7 X
Track quality 100.0 %
Test CRC 82B5AD58
Copy CRC 82B5AD58
Accurately ripped (confidence 2) [CC7C44E3] (AR v2)
Copy OK
Track 9
Filename D:\EAC\09 - Somewhere Over The Rainbow.wav
Peak level 72.3 %
Extraction speed 5.3 X
Track quality 100.0 %
Test CRC 51C46E54
Copy CRC 51C46E54
Accurately ripped (confidence 2) [C9697DD1] (AR v2)
Copy OK
All tracks accurately ripped
No errors occurred
End of status report
==== Log checksum 89D24887823B4F28B00781EAC602E6C60DDC50011B5042D08446C0DF04605617 ====
 
Содержание индексной карты (.CUE)
REM GENRE Jazz
REM DATE 2016
REM DISCID 8F0E1F09
REM COMMENT "ExactAudioCopy v1.0b3"
PERFORMER "Ferenc Snetberger"
TITLE "In Concert"
FILE "01 - Budapest - Part 1.wav" WAVE
TRACK 01 AUDIO
TITLE "Budapest - Part 1"
PERFORMER "Ferenc Snetberger"
INDEX 01 00:00:00
FILE "02 - Budapest - Part 2.wav" WAVE
TRACK 02 AUDIO
TITLE "Budapest - Part 2"
PERFORMER "Ferenc Snetberger"
INDEX 01 00:00:00
FILE "03 - Budapest - Part 3.wav" WAVE
TRACK 03 AUDIO
TITLE "Budapest - Part 3"
PERFORMER "Ferenc Snetberger"
INDEX 01 00:00:00
FILE "04 - Budapest - Part 4.wav" WAVE
TRACK 04 AUDIO
TITLE "Budapest - Part 4"
PERFORMER "Ferenc Snetberger"
INDEX 01 00:00:00
FILE "05 - Budapest - Part 5.wav" WAVE
TRACK 05 AUDIO
TITLE "Budapest - Part 5"
PERFORMER "Ferenc Snetberger"
INDEX 01 00:00:00
FILE "06 - Budapest - Part 6.wav" WAVE
TRACK 06 AUDIO
TITLE "Budapest - Part 6"
PERFORMER "Ferenc Snetberger"
INDEX 01 00:00:00
FILE "07 - Budapest - Part 7.wav" WAVE
TRACK 07 AUDIO
TITLE "Budapest - Part 7"
PERFORMER "Ferenc Snetberger"
INDEX 01 00:00:00
FILE "08 - Budapest - Part 8.wav" WAVE
TRACK 08 AUDIO
TITLE "Budapest - Part 8"
PERFORMER "Ferenc Snetberger"
INDEX 01 00:00:00
FILE "09 - Somewhere Over The Rainbow.wav" WAVE
TRACK 09 AUDIO
TITLE "Somewhere Over The Rainbow"
PERFORMER "Ferenc Snetberger"
INDEX 01 00:00:00
21:30
268
Нет комментариев. Ваш будет первым!