Поиск

(ECM Sound / Progressive Big Band / Experimental Big Band / Post-Bop / Avant-Garde Jazz) ECM Selected Recordings — Carla Bley — 1961-99/2004, FLAC (tracks)

Треклист:
ECM Selected Recordings
Carla Bley
Label: ECM
Жанр: ECM Sound / Progressive Big Band / Experimental Big Band / Post-Bop / Avant-Garde Jazz
Год выпуска: 2004
Формат: FLAC (tracks)
Продолжительность: 75:45
Трэклист:
Baseball
Major
End of Vienna
Chicken
On The Stage In Cages
Fleur Carnivore
More Brahms
Walking Batteriewoman
Silence
Why
Ictus
Доп. информация:
в записи принимали участие:
Carla Bley piano, organ
Don Alias percussion
Julian Arguelles baritone saxophone
Gato Barbieri tenor saxophone
Guy Barker trumpet
Daniel Beaussier oboe
Emma Black cello
Paul Bley piano
Hiram Bullock tuba
Andrew Byrt viola
Don Cherry pocket trumpet
Tony Dagradi tenor saxophone
Joe Daley euphonium
Claude Deppa trumpet
Richard Edwards trombone
Sharon Freeman french horn
Jimmy Giuffre clarinet
Larry Goldings organ
Charlie Haden double-bass, vocalist
Alison Hayhurst flute
Roger Jannotta soprano saxophone
Jack Jeffers trombone
Frank Lacy french horn
Christof Lauer tenor saxophone
Sara Lee clarinet
Victor Lewis drums
Jimmy Lyons alto saxophone
Dennis Mackrel drums
Karen Mantler organ
Recordings 1961-1999
 
коротко об этом альбоме
“This collection contains samples from almost all of my life’s musical efforts, starting with recent albums and going back, with a few selections from ECM releases of my work by other artists, to the early sixties.” This is the :rarum disc that reaches the furthest into history as Carla’s “Ictus” is played by Jimmy Giuffre’s 1961 trio: this was music that laid the groundwork for the “chamber jazz” ECM would later explore more extensively. There is music with the Jazz Composer’s Orchestra and with the Liberation Music Orchestra, and with Carla’s large and small ensembles as documented on WATT, and no shortage of star soloists…
 
скрытый текст
Отчёт EAC об извлечении, выполненном 26. марта 2008, 13:35 для диска:
Carla Bley / rarum: Selected Records
Дисковод: TSSTcorpCDDVDW SH-S203D Adapter: 2 ID: 1
Режим чтения: Достоверный (C2: нет, Точный поток: да, Отключение кэша: да)
Коррекция смещения при чтении: 6
Способность читать области Lead-in и Lead-out : Нет
Выходной формат: Внутренние WAV-операции
44.100 Гц; 16 бит; стерео
Другие параметры:
Заполнение пропущенных сэмплов тишиной : Да
Удаление блоков с тишиной в начале и конце : Нет
Встроенный Win32-интерфейс для Win NT/2000
Трек 1
Имя файла C:\Documents and Settings\EACtemp\(01) Baseball - Carla Bley.wav
Пиковый уровень 97.3 %
Качество трека 100.0 %
CRC теста 174ED6BD
CRC копии 174ED6BD
Копирование... OK
Трек 2
Имя файла C:\Documents and Settings\EACtemp\(02) Major - Carla Bley.wav
Пиковый уровень 80.4 %
Качество трека 100.0 %
CRC теста 10DDC23C
CRC копии 10DDC23C
Копирование... OK
Трек 3
Имя файла C:\Documents and Settings\EACtemp\(03) End of Vienna - Carla Bley.wav
Пиковый уровень 65.9 %
Качество трека 100.0 %
CRC теста 71FE058B
CRC копии 71FE058B
Копирование... OK
Трек 4
Имя файла C:\Documents and Settings\EACtemp\(04) Chicken - Carla Bley.wav
Пиковый уровень 89.8 %
Качество трека 100.0 %
CRC теста 8291E803
CRC копии 8291E803
Копирование... OK
Трек 5
Имя файла C:\Documents and Settings\EACtemp\(05) On the stage in cages - Carla Bley.wav
Пиковый уровень 100.0 %
Качество трека 99.9 %
CRC теста 397B362A
CRC копии 397B362A
Копирование... OK
Трек 6
Имя файла C:\Documents and Settings\EACtemp\(06) Fleur Carnivore - Carla Bley.wav
Пиковый уровень 85.8 %
Качество трека 100.0 %
CRC теста 73BA57F6
CRC копии 73BA57F6
Копирование... OK
Трек 7
Имя файла C:\Documents and Settings\EACtemp\(07) More Brahms - Carla Bley.wav
Пиковый уровень 85.1 %
Качество трека 100.0 %
CRC теста 9784FE67
CRC копии 9784FE67
Копирование... OK
Трек 8
Имя файла C:\Documents and Settings\EACtemp\(08) Walking Batteriewoman - Carla Bley.wav
Пиковый уровень 78.0 %
Качество трека 100.0 %
CRC теста 39AB4C74
CRC копии 39AB4C74
Копирование... OK
Трек 9
Имя файла C:\Documents and Settings\EACtemp\(09) Silence - Carla Bley.wav
Пиковый уровень 75.8 %
Качество трека 100.0 %
CRC теста 5745E466
CRC копии 5745E466
Копирование... OK
Трек 10
Имя файла C:\Documents and Settings\EACtemp\(10) Why - Carla Bley.wav
Пиковый уровень 69.3 %
Качество трека 100.0 %
CRC теста E968F199
CRC копии E968F199
Копирование... OK
Трек 11
Имя файла C:\Documents and Settings\EACtemp\(11) Ictus - Carla Bley.wav
Пиковый уровень 88.1 %
Качество трека 100.0 %
CRC теста 3B9DDEF7
CRC копии 3B9DDEF7
Копирование... OK
Ошибок не произошло
Конец отчёта

Приватный:
Нет (DHT включён)
Размер:
378.13 Мб (396,499,152 байт) » файлов: 16
Участники:
0 раздают, 0 качают (0 участников всего)
Внешние участники:
5 раздают, 1 качают (6 участников всего) [ Обновить ]
Есть вопросы - пишите личное сообщение пользователю M0p94ok.
00:21
55
Нет комментариев. Ваш будет первым!