Поиск

(ecm, post-bop, chamber) Ketil Bjornstad - La Notte - 2013, FLAC (tracks+.cue), lossless

Треклист:
Ketil Bjornstad - La Notte
Жанр: ecm, post-bop, chamber
Год издания: 2013
Издатель (лейбл): ecm
Номер по каталогу: {ECM 2300}
Страна: Норвегия
Аудиокодек: FLAC (*.flac)
Тип рипа: tracks+.cue
Битрейт аудио: lossless
Продолжительность: 00:54:41
Источник (релизер): сеть
Наличие сканов в содержимом раздачи: да
Треклист:
I
II
III
IV
V
VI
VII
VIII
Andy Sheppard - tenor and soprano saxophones
Anja Lechner - violoncello
Eivind Aarset - guitars, electronics
Arild Andersen - double bass
Marilyn Mazur - percussion and drums
Ketil Bjørnstad - piano
 
Лог создания рипа
Exact Audio Copy V1.0 beta 3 from 29. August 2011
EAC extraction logfile from 25. April 2013, 20:19
Ketil Bjornstad / La Notte
Used drive : Optiarc DVD RW AD-7240S Adapter: 3 ID: 1
Read mode : Secure
Utilize accurate stream : Yes
Defeat audio cache : Yes
Make use of C2 pointers : No
Read offset correction : 48
Overread into Lead-In and Lead-Out : No
Fill up missing offset samples with silence : Yes
Delete leading and trailing silent blocks : No
Null samples used in CRC calculations : Yes
Used interface : Installed external ASPI interface
Gap handling : Appended to previous track
Used output format : User Defined Encoder
Selected bitrate : 896 kBit/s
Quality : High
Add ID3 tag : No
Command line compressor : C:\Program Files\Exact Audio Copy\Flac\flac.exe
Additional command line options : -8 -V -T "ARTIST=%artist%" -T "TITLE=%title%" -T "ALBUM=%albumtitle%" -T "DATE=%year%" -T "TRACKNUMBER=%tracknr%" -T "TOTALTRACKS=%numtracks%" -T "GENRE=%genre%" -T "ALBUMARTIST=%albumartist%" -T "ALBUM ARTIST=%albumartist%" -T "COMMENT=EAC Secure Mode, Test & Copy, AccurateRip, FLAC -8" %source%
TOC of the extracted CD
Track | Start | Length | Start sector | End sector
---------------------------------------------------------
1 | 0:00.00 | 6:54.61 | 0 | 31110
2 | 6:54.61 | 8:24.16 | 31111 | 68926
3 | 15:19.02 | 4:39.09 | 68927 | 89860
4 | 19:58.11 | 5:27.72 | 89861 | 114457
5 | 25:26.08 | 8:33.47 | 114458 | 152979
6 | 33:59.55 | 6:44.48 | 152980 | 183327
7 | 40:44.28 | 7:05.63 | 183328 | 215265
8 | 47:50.16 | 7:00.05 | 215266 | 246770
Track 1
Filename F:\AneL\MY RIPS\01 - I.wav
Pre-gap length 0:00:02.00
Peak level 48.1 %
Extraction speed 2.6 X
Track quality 100.0 %
Test CRC 64C518E5
Copy CRC 64C518E5
Track not present in AccurateRip database
Copy OK
Track 2
Filename F:\AneL\MY RIPS\02 - II.wav
Pre-gap length 0:00:01.08
Peak level 98.9 %
Extraction speed 3.1 X
Track quality 100.0 %
Test CRC 3A15D4B1
Copy CRC 3A15D4B1
Track not present in AccurateRip database
Copy OK
Track 3
Filename F:\AneL\MY RIPS\03 - III.wav
Pre-gap length 0:00:00.72
Peak level 85.5 %
Extraction speed 3.3 X
Track quality 100.0 %
Test CRC 7C515C28
Copy CRC 7C515C28
Track not present in AccurateRip database
Copy OK
Track 4
Filename F:\AneL\MY RIPS\04 - IV.wav
Pre-gap length 0:00:02.30
Peak level 54.3 %
Extraction speed 3.6 X
Track quality 100.0 %
Test CRC 779B7A2D
Copy CRC 779B7A2D
Track not present in AccurateRip database
Copy OK
Track 5
Filename F:\AneL\MY RIPS\05 - V.wav
Peak level 89.3 %
Extraction speed 4.1 X
Track quality 100.0 %
Test CRC 6BE8F6AC
Copy CRC 6BE8F6AC
Track not present in AccurateRip database
Copy OK
Track 6
Filename F:\AneL\MY RIPS\06 - VI.wav
Pre-gap length 0:00:02.29
Peak level 56.1 %
Extraction speed 4.3 X
Track quality 100.0 %
Test CRC 4AFFC824
Copy CRC 4AFFC824
Track not present in AccurateRip database
Copy OK
Track 7
Filename F:\AneL\MY RIPS\07 - VII.wav
Peak level 99.2 %
Extraction speed 4.6 X
Track quality 100.0 %
Test CRC 9FBAF0A1
Copy CRC 9FBAF0A1
Track not present in AccurateRip database
Copy OK
Track 8
Filename F:\AneL\MY RIPS\08 - VIII.wav
Pre-gap length 0:00:01.35
Peak level 46.7 %
Extraction speed 4.9 X
Track quality 100.0 %
Test CRC B7EA35C8
Copy CRC B7EA35C8
Track not present in AccurateRip database
Copy OK
None of the tracks are present in the AccurateRip database
No errors occurred
End of status report
==== Log checksum 97EDCE3AAB348DAB4D2631867BFEAA2298B09F5BB8E2541E1BC0E5F68F866C79 ====
 
Содержание индексной карты (.CUE)
REM GENRE Jazz
REM DATE 2013
REM DISCID 560CDA08
REM COMMENT "ExactAudioCopy v1.0b3"
PERFORMER "Ketil Bjornstad"
TITLE "La Notte"
FILE "01 - I.wav" WAVE
TRACK 01 AUDIO
TITLE "I"
PERFORMER "Ketil Bjornstad"
INDEX 01 00:00:00
TRACK 02 AUDIO
TITLE "II"
PERFORMER "Ketil Bjornstad"
INDEX 00 06:53:53
FILE "02 - II.wav" WAVE
INDEX 01 00:00:00
TRACK 03 AUDIO
TITLE "III"
PERFORMER "Ketil Bjornstad"
INDEX 00 08:23:19
FILE "03 - III.wav" WAVE
INDEX 01 00:00:00
TRACK 04 AUDIO
TITLE "IV"
PERFORMER "Ketil Bjornstad"
INDEX 00 04:36:54
FILE "04 - IV.wav" WAVE
INDEX 01 00:00:00
FILE "05 - V.wav" WAVE
TRACK 05 AUDIO
TITLE "V"
PERFORMER "Ketil Bjornstad"
INDEX 01 00:00:00
TRACK 06 AUDIO
TITLE "VI"
PERFORMER "Ketil Bjornstad"
INDEX 00 08:31:18
FILE "06 - VI.wav" WAVE
INDEX 01 00:00:00
FILE "07 - VII.wav" WAVE
TRACK 07 AUDIO
TITLE "VII"
PERFORMER "Ketil Bjornstad"
INDEX 01 00:00:00
TRACK 08 AUDIO
TITLE "VIII"
PERFORMER "Ketil Bjornstad"
INDEX 00 07:04:28
FILE "08 - VIII.wav" WAVE
INDEX 01 00:00:00
 
about
Commissioned by the Molde International Jazz Festival and recorded live at the Norwegian festival in 2010, “La notte” is a salute to Italian filmmaker Michelangelo Antonioni, whom Ketil Bjørnstad counts amongst his formative influences. “At the same time that I discovered what jazz could be, after listening to Miles Davis’ In A Silent Way, I also saw the films by Godard, Bresson and Antonioni. Perhaps it was the slow, rhythmic authority in the films by Michelangelo Antonioni that made me think of music... As long as visual art creates music in our minds, and music creates pictures and visual expressions with the same intensity, the two are deeply and profoundly interdependent”. This album, then, can be considered “the soundtrack to an inner film”, in which Antonioni’s images and atmospheres are translated and transformed through personal moods and memories. For the Molde concert, Bjørnstad convened a special Norwegian-Danish-German-British band of musicians, old and new friends closely associated with ECM. The concert was rapturously received by the media, and described as an “absolutely stunning performance” by All About Jazz.
ecm player Ketil Bjørnstad - Коллекция
Download available for power users only.
07:27
249
Нет комментариев. Ваш будет первым!