Поиск

(ecm, jazz, world fusion) Dino Saluzzi — Once upon a time - Far away in the south [ECM 1309] - 1986, FLAC (image+.cue), lossless

Треклист:
Dino Saluzzi
Once upon a time - Far away in the south
Жанр: jazz, world fusion
Год выпуска альбома: 1986
Год выпуска диска: 1999
Производитель диска: ECM (1309)
Аудио кодек: FLAC
Тип рипа: image+.cue + Complete Artwork
Битрейт аудио: lossless
Продолжительность: 00:55:31
Треклист:
01. José, Valeria and Matias
02. And the father said... (Intermediate)
03. The Revelation (Ritual)
04. Silence
05. ...and he loved his brother, till the end
06. Far away in the south...
07. We are the children
Personnel:
Dino Saluzzi - bandoneon
Palle Mikkelborg - trumpet, fluegelhorn
Charlie Haden - bass
Pierre Favre - percussion
 
log
EAC extraction logfile from 24. June 2006, 20:45 for CD
Dino Saluzzi / Once upon a time - Far away in the south
Used drive : PLEXTOR DVDR PX-740A Adapter: 1 ID: 0
Read mode : Secure with NO C2, accurate stream, disable cache
Read offset correction : 618
Overread into Lead-In and Lead-Out : No
Used output format : Internal WAV Routines
44.100 Hz; 16 Bit; Stereo
Other options :
Fill up missing offset samples with silence : Yes
Delete leading and trailing silent blocks : No
Installed external ASPI interface
Range status and errors
Selected range
Filename D:\Dino Saluzzi - Once Upon a Time - Far Away in the South.wav
Peak level 81.0 %
Range quality 100.0 %
CRC F7D3AD3F
Copy OK
No errors occured
End of status report
 
.cue
REM GENRE Jazz
REM DATE 1985
REM DISCID 5D0D0307
REM COMMENT "ExactAudioCopy v0.95b3"
CATALOG 0042282776822
PERFORMER "Dino Saluzzi"
TITLE "Once upon a time - Far away in the south"
FILE "Dino Saluzzi - Once Upon a Time - Far Away in the South.wav" WAVE
TRACK 01 AUDIO
TITLE "Josй, Valeria and Matias"
PERFORMER "Dino Saluzzi"
INDEX 00 00:00:00
INDEX 01 00:00:32
TRACK 02 AUDIO
TITLE "And the father said..."
PERFORMER "Dino Saluzzi"
INDEX 00 12:48:50
INDEX 01 12:51:62
TRACK 03 AUDIO
TITLE "The Revelation"
PERFORMER "Dino Saluzzi"
INDEX 01 14:37:07
TRACK 04 AUDIO
TITLE "Silence"
PERFORMER "Dino Saluzzi"
INDEX 00 19:50:67
INDEX 01 19:54:37
TRACK 05 AUDIO
TITLE "...and he loved his brother, till the end"
PERFORMER "Dino Saluzzi"
INDEX 00 26:39:67
INDEX 01 26:43:37
TRACK 06 AUDIO
TITLE "Far away in the south..."
PERFORMER "Dino Saluzzi"
INDEX 00 34:25:60
INDEX 01 34:30:50
TRACK 07 AUDIO
TITLE "We are the children"
PERFORMER "Dino Saluzzi"
INDEX 00 50:20:12
INDEX 01 50:23:30
 
AccurateRip
[CUETools log; Date: 26.07.2010 22:19:13; Version: 2.0.9]
Pregap length 00:00:32.
[CTDB TOCID: H3iBZ0bJw1nkI71KdRi2nslgwd8-] disk not present in database.
[AccurateRip ID: 000ebb5b-00585c47-5d0d0307] found.
Track [ CRC ] Status
01 [a5c9c1de] (6/8) Accurately ripped
02 [df3c40bc] (6/8) Accurately ripped
03 [01b15894] (6/8) Accurately ripped
04 [4d357cf4] (6/8) Accurately ripped
05 [3c1e5bed] (6/8) Accurately ripped
06 [0e78c150] (6/8) Accurately ripped
07 [de4b072f] (6/8) Accurately ripped
Offsetted by -1650:
01 [157cc8e4] (2/8) Accurately ripped
02 [8a0ee97c] (2/8) Accurately ripped
03 [b9f59d8a] (2/8) Accurately ripped
04 [84c8b2ac] (2/8) Accurately ripped
05 [ddfb5699] (2/8) Accurately ripped
06 [e4ccdb78] (2/8) Accurately ripped
07 [e3c461c7] (2/8) Accurately ripped
Track Peak [ CRC32 ] [W/O NULL] [ LOG ]
-- 81,0 [F7D3AD3F] [90DF8243] CRC32
01 68,9 [06F3EA8E] [39A94A2B]
02 59,1 [70098266] [B7C932D1]
03 74,2 [0B573E25] [D6AE17AC]
04 54,1 [E1D5AB2C] [2594F2FD]
05 71,7 [9B73A6FF] [CC6FD192]
06 81,0 [DE6F4EF1] [4853C68E]
07 76,3 [73FC7096] [27728EAA]



Диск взят с ослосети
17:06
321
Нет комментариев. Ваш будет первым!