Поиск

(ECM / jazz) Marilyn Crispell Trio - Storyteller [ECM 1847] - 2004, APE (image + .cue), lossless

(ECM / jazz) Marilyn Crispell Trio - Storyteller [ECM 1847] - 2004, APE (image + .cue), lossless
Треклист:
Marilyn Crispell Trio - Storyteller [ECM 1847]
Страна: Germany / ECM 1847 0381192
Жанр: jazz
Год выпуска: 2004
Формат: APE (image + .cue)
Битрейт аудио: lossless
Продолжительность: 60:69
Трэклист:
1.Wild Rose
2.Flight of the Bluejay
3.The Storyteller
4.Alone
5.Harmonic Line
6.Cosmology 2
7.Limbo
8.Play
9.The Sunflower
10.Cosmology 1
11.So Far, So Near
Доп. информация:
Marilyn Crispell piano
Mark Helias double-bass
Paul Motian drums
 
Marilyn Crispell
Получивши академическое образование Мэрилин вошла в авангардно-джазовые круги под влиянием Cecil Taylor и John Coltrane. Долгое время она играла в составе Anthony Braxton Quartet и Reggie Workman Ensemble, также была в составах Barry Guy New Orchestra и London Jazz Composers Orchestra.
Marilyn обладает удивительной техникой в которой сочетаются женская мягкость игры с удивительной силой фразировки, импровизации её стремительны и виртуозны. В её импровизациях используется широчайший диапазон настроений и техник (многие из которых имеют в основании академическиие идеомы), при прослушивании поражает она и своей экспрессией.
(vvb5p)
 
Отчёт EAC
Exact Audio Copy V0.99 prebeta 2 from 28. July 2007
Отчёт EAC об извлечении, выполненном 27. сентября 2007, 13:47
Marilyn Crispell Trio / Storyteller
Дисковод: HL-DT-STDVDRAM GSA-4167B Adapter: 0 ID: 0
Режим чтения : Достоверность
Использование точного потока : Да
Отключение кэша аудио : Да
Использование указателей C2 : Нет
Коррекция смещения при чтении : 667
Способность читать области Lead-in и Lead-out : Нет
Заполнение пропущенных сэмплов тишиной : Да
Удаление блоков с тишиной в начале и конце : Нет
При вычислениях CRC использовались нулевые сэмплы : Да
Интерфейс : Установленный внешний ASPI-интерфейс
Выходной формат : Внутренние WAV-операции
Формат сэмплов : 44.100 Гц; 16 бит; стерео
TOC извлечённого CD
Трек | Старт | Длительность | Начальный сектор | Конечный сектор
---------------------------------------------------------------------
1 | 0:00.00 | 4:13.47 | 0 | 19021
2 | 4:13.47 | 4:39.33 | 19022 | 39979
3 | 8:53.05 | 6:06.50 | 39980 | 67479
4 | 14:59.55 | 4:45.10 | 67480 | 88864
5 | 19:44.65 | 5:55.45 | 88865 | 115534
6 | 25:40.35 | 5:39.00 | 115535 | 140959
7 | 31:19.35 | 6:54.30 | 140960 | 172039
8 | 38:13.65 | 5:13.52 | 172040 | 195566
9 | 43:27.42 | 3:59.63 | 195567 | 213554
10 | 47:27.30 | 4:02.32 | 213555 | 231736
11 | 51:29.62 | 9:27.55 | 231737 | 274316
Характеристики диапазона извлечения и сообщения об ошибках
Выбранный диапазон
Имя файла H:\Muzlo\JAZZ\BIG JAZZ\RIPER-CUTTER\Marilyn Crispell Trio - Storyteller.wav
Пиковый уровень 99.2 %
Качество диапазона 100.0 %
CRC копии D88A2D9A
Копирование... OK
Ошибок не произошло
Конец отчёта
Приватный:
Нет (DHT включён)
Размер:
323.25 Мб (338,948,380 байт) » файлов: 16
Участники:
0 раздают, 0 качают (0 участников всего)
Внешние участники:
1 раздают, 0 качают (1 участников всего) [ Обновить ]
No seeders - write personal message to user M0p94ok. Нет сидеров - пишите личное сообщение пользователю M0p94ok.
22:39
66
Нет комментариев. Ваш будет первым!