Поиск

(ecm, jazz, fusion) Zakir Hussain - Making Music [ECM 1349] - 1987, FLAC (tracks+.cue), lossless

Треклист:
Zakir Hussain
Making Music
Жанр: jazz, fusion
Год выпуска диска: 1987
Производитель диска: ECM (1349)
Аудио кодек: FLAC
Тип рипа: tracks+.cue + Artwork
Битрейт аудио: lossless
Продолжительность: 00:49:15
Трэклист:
01. Making Music
02. Zakir
03. Water Girl
04. Toni
05. Anisa
06. Sunjog
07. You And Me
08. Sabah
 
log
Exact Audio Copy V0.99 prebeta 5 from 4. May 2009
EAC extraction logfile from 15. June 2010, 14:44
Zakir Hussain / Making Music
Used drive : ATAPI iHAS222 8 Adapter: 3 ID: 0
Read mode : Secure
Utilize accurate stream : Yes
Defeat audio cache : Yes
Make use of C2 pointers : No
Read offset correction : 6
Overread into Lead-In and Lead-Out : No
Fill up missing offset samples with silence : Yes
Delete leading and trailing silent blocks : No
Null samples used in CRC calculations : Yes
Used interface : Native Win32 interface for Win NT & 2000
Gap handling : Appended to previous track
Used output format : User Defined Encoder
Selected bitrate : 128 kBit/s
Quality : High
Add ID3 tag : No
Command line compressor : I:\Program Files\Exact Audio Copy\Flac\flac.exe
Additional command line options : -V -8 -T "artist=%a" -T "title=%t" -T "album=%g" -T "date=%y" -T "tracknumber=%n" -T "genre=%m" %s
TOC of the extracted CD
Track | Start | Length | Start sector | End sector
---------------------------------------------------------
1 | 0:00.33 | 12:30.12 | 33 | 56294
2 | 12:30.45 | 6:23.60 | 56295 | 85079
3 | 18:54.30 | 3:52.30 | 85080 | 102509
4 | 22:46.60 | 3:51.00 | 102510 | 119834
5 | 26:37.60 | 9:14.60 | 119835 | 161444
6 | 35:52.45 | 7:36.08 | 161445 | 195652
7 | 43:28.53 | 2:12.42 | 195653 | 205594
8 | 45:41.20 | 3:35.03 | 205595 | 221722
Track 1
Filename I:\STORAGE\What uploads\Zakir Hussain - 1987 - Making Music [FLAC]\01 - Making Music.wav
Pre-gap length 0:00:02.44
Peak level 53.7 %
Track quality 100.0 %
Test CRC F1522415
Copy CRC F1522415
Accurately ripped (confidence 33) [A6669150]
Copy OK
Track 2
Filename I:\STORAGE\What uploads\Zakir Hussain - 1987 - Making Music [FLAC]\02 - Zakir.wav
Pre-gap length 0:00:03.13
Peak level 39.4 %
Track quality 100.0 %
Test CRC 6980AC25
Copy CRC 6980AC25
Accurately ripped (confidence 33) [96822752]
Copy OK
Track 3
Filename I:\STORAGE\What uploads\Zakir Hussain - 1987 - Making Music [FLAC]\03 - Water Girl.wav
Pre-gap length 0:00:04.93
Peak level 80.0 %
Track quality 100.0 %
Test CRC 9118DFAB
Copy CRC 9118DFAB
Accurately ripped (confidence 33) [C0AFF9BF]
Copy OK
Track 4
Filename I:\STORAGE\What uploads\Zakir Hussain - 1987 - Making Music [FLAC]\04 - Toni.wav
Pre-gap length 0:00:02.76
Peak level 29.0 %
Track quality 100.0 %
Test CRC D6558AC4
Copy CRC D6558AC4
Accurately ripped (confidence 33) [520B522E]
Copy OK
Track 5
Filename I:\STORAGE\What uploads\Zakir Hussain - 1987 - Making Music [FLAC]\05 - Anisa.wav
Pre-gap length 0:00:03.49
Peak level 60.1 %
Track quality 100.0 %
Test CRC 450784E0
Copy CRC 450784E0
Accurately ripped (confidence 32) [06C1A275]
Copy OK
Track 6
Filename I:\STORAGE\What uploads\Zakir Hussain - 1987 - Making Music [FLAC]\06 - Sunjog.wav
Pre-gap length 0:00:04.82
Peak level 42.9 %
Track quality 100.0 %
Test CRC 73FC95EB
Copy CRC 73FC95EB
Accurately ripped (confidence 32) [B2F91106]
Copy OK
Track 7
Filename I:\STORAGE\What uploads\Zakir Hussain - 1987 - Making Music [FLAC]\07 - You And Me.wav
Pre-gap length 0:00:02.57
Peak level 52.9 %
Track quality 100.0 %
Test CRC 6D4D5A2B
Copy CRC 6D4D5A2B
Accurately ripped (confidence 32) [FB68982A]
Copy OK
Track 8
Filename I:\STORAGE\What uploads\Zakir Hussain - 1987 - Making Music [FLAC]\08 - Sabah.wav
Pre-gap length 0:00:05.49
Peak level 40.2 %
Track quality 100.0 %
Test CRC 218C8449
Copy CRC 218C8449
Accurately ripped (confidence 32) [BE5061B4]
Copy OK
All tracks accurately ripped
No errors occurred
End of status report
 
cue
REM GENRE Jazz
REM DATE 1987
REM DISCID 6A0B8C08
REM COMMENT "ExactAudioCopy v0.99pb5"
PERFORMER "Zakir Hussain"
TITLE "Making Music"
FILE "Zakir Hussain - 1987 - Making Music [FLAC]\01 - Making Music.wav" WAVE
TRACK 01 AUDIO
TITLE "Making Music"
PERFORMER "Zakir Hussain"
PREGAP 00:00:33
INDEX 01 00:00:00
TRACK 02 AUDIO
TITLE "Zakir"
PERFORMER "Zakir Hussain"
INDEX 00 12:27:02
FILE "Zakir Hussain - 1987 - Making Music [FLAC]\02 - Zakir.wav" WAVE
INDEX 01 00:00:00
TRACK 03 AUDIO
TITLE "Water Girl"
PERFORMER "Zakir Hussain"
INDEX 00 06:18:65
FILE "Zakir Hussain - 1987 - Making Music [FLAC]\03 - Water Girl.wav" WAVE
INDEX 01 00:00:00
TRACK 04 AUDIO
TITLE "Toni"
PERFORMER "Zakir Hussain"
INDEX 00 03:49:48
FILE "Zakir Hussain - 1987 - Making Music [FLAC]\04 - Toni.wav" WAVE
INDEX 01 00:00:00
TRACK 05 AUDIO
TITLE "Anisa"
PERFORMER "Zakir Hussain"
INDEX 00 03:47:38
FILE "Zakir Hussain - 1987 - Making Music [FLAC]\05 - Anisa.wav" WAVE
INDEX 01 00:00:00
TRACK 06 AUDIO
TITLE "Sunjog"
PERFORMER "Zakir Hussain"
INDEX 00 09:09:73
FILE "Zakir Hussain - 1987 - Making Music [FLAC]\06 - Sunjog.wav" WAVE
INDEX 01 00:00:00
TRACK 07 AUDIO
TITLE "You And Me"
PERFORMER "Zakir Hussain"
INDEX 00 07:33:40
FILE "Zakir Hussain - 1987 - Making Music [FLAC]\07 - You And Me.wav" WAVE
INDEX 01 00:00:00
TRACK 08 AUDIO
TITLE "Sabah"
PERFORMER "Zakir Hussain"
INDEX 00 02:07:05
FILE "Zakir Hussain - 1987 - Making Music [FLAC]\08 - Sabah.wav" WAVE
INDEX 01 00:00:00

Его считают величайшим исполнителем на табла всех времен. Закир Хуссейн (Zakir Hussain), сын знаменитого мастера игры на табла Устада Алларакха (Ustad Allarakha), играл с огромным количеством самых разных артистов. Среди них классические индийские мастера - Рави Шанкар (Ravi Shankar), Шивкумар Шарма (Shivkumar Sharma), Лакшминараяна Шанкар (Lakshminarayana Shankar), Али Акбар Хан (Ali Akbar Khan) и другие.
Personnel:
Zakir Hussain - tabla, percussion, voice
Hariprasad Chaurasia - flutes
John McLaughlin - acoustic guitar
Jan Garbarek - tenor, soprano saxophones


Диск взят с другого трекера. Спасибо mistersofty
16:22
466
Нет комментариев. Ваш будет первым!