Поиск

(ecm, jazz, folk, latin, fusion) Egberto Gismonti - Works [ECM 3269] - 1984, FLAC (tracks+.cue), lossless

Треклист:
Egberto Gismonti
Works
Жанр: jazz, folk, latin, fusion
Год выпуска диска: 1984
Производитель диска: ECM (3269)
Аудио кодек: FLAC
Тип рипа: tracks+.cue
Битрейт аудио: lossless
Продолжительность: 00:47:10
Трэклист:
01. Lôro
02. Raga
03. Ciranda Nordestina
04. Magico
05. Maracuta
06. Salvador
 
log
Exact Audio Copy V0.99 prebeta 5 from 4. May 2009
EAC extraction logfile from 17. May 2010, 17:53
Egberto Gismonti / Works
Used drive : _NEC DVD_RW ND-3520AW Adapter: 1 ID: 0
Read mode : Secure
Utilize accurate stream : Yes
Defeat audio cache : Yes
Make use of C2 pointers : No
Read offset correction : 48
Overread into Lead-In and Lead-Out : No
Fill up missing offset samples with silence : Yes
Delete leading and trailing silent blocks : No
Null samples used in CRC calculations : Yes
Used interface : Native Win32 interface for Win NT & 2000
Gap handling : Appended to previous track
Used output format : User Defined Encoder
Selected bitrate : 320 kBit/s
Quality : High
Add ID3 tag : No
Command line compressor : C:\Program Files\FLAC\flac.exe
Additional command line options : -V -8 -T "artist=%a" -T "title=%t" -T "album=%g" -T "date=%y" -T "tracknumber=%n" -T "genre=%m" %s
TOC of the extracted CD
Track | Start | Length | Start sector | End sector
---------------------------------------------------------
1 | 0:00.33 | 5:33.15 | 33 | 25022
2 | 5:33.48 | 8:52.45 | 25023 | 64967
3 | 14:26.18 | 9:59.70 | 64968 | 109962
4 | 24:26.13 | 7:45.00 | 109963 | 144837
5 | 32:11.13 | 8:24.42 | 144838 | 182679
6 | 40:35.55 | 6:34.68 | 182680 | 212297
Track 1
Filename C:\Music\(Temp)\EAC\01 - Lôro.wav
Pre-gap length 0:00:02.44
Peak level 82.5 %
Track quality 100.0 %
Test CRC 0F06DA9E
Copy CRC 0F06DA9E
Accurately ripped (confidence 8) [8E588F69]
Copy OK
Track 2
Filename C:\Music\(Temp)\EAC\02 - Raga.wav
Pre-gap length 0:00:05.13
Peak level 98.8 %
Track quality 99.9 %
Test CRC 8000163F
Copy CRC 8000163F
Accurately ripped (confidence 8) [DA3B2A6C]
Copy OK
Track 3
Filename C:\Music\(Temp)\EAC\03 - Ciranda Nordestina.wav
Pre-gap length 0:00:04.44
Peak level 83.5 %
Track quality 100.0 %
Test CRC 461479EF
Copy CRC 461479EF
Accurately ripped (confidence 8) [CF17ABB2]
Copy OK
Track 4
Filename C:\Music\(Temp)\EAC\04 - Magico.wav
Pre-gap length 0:00:02.30
Peak level 76.7 %
Track quality 99.9 %
Test CRC 9785E053
Copy CRC 9785E053
Accurately ripped (confidence 8) [4E8584DA]
Copy OK
Track 5
Filename C:\Music\(Temp)\EAC\05 - Maracuta.wav
Pre-gap length 0:00:04.30
Peak level 88.4 %
Track quality 100.0 %
Test CRC 31557D77
Copy CRC 31557D77
Accurately ripped (confidence 7) [F4BB7AA6]
Copy OK
Track 6
Filename C:\Music\(Temp)\EAC\06 - Salvador.wav
Pre-gap length 0:00:04.69
Peak level 80.6 %
Track quality 100.0 %
Test CRC 574355BE
Copy CRC 574355BE
Accurately ripped (confidence 8) [52BA9C47]
Copy OK
All tracks accurately ripped
No errors occurred
End of status report
 
cue
REM GENRE Jazz
REM DATE 1984
REM DISCID 560B0E06
REM COMMENT "ExactAudioCopy v0.99pb5"
PERFORMER "Egberto Gismonti"
TITLE "Works"
FILE "01 - Lôro.wav" WAVE
TRACK 01 AUDIO
TITLE "Lôro"
PERFORMER "Egberto Gismonti"
PREGAP 00:00:33
INDEX 01 00:00:00
TRACK 02 AUDIO
TITLE "Raga"
PERFORMER "Egberto Gismonti"
INDEX 00 05:28:05
FILE "02 - Raga.wav" WAVE
INDEX 01 00:00:00
TRACK 03 AUDIO
TITLE "Ciranda Nordestina"
PERFORMER "Egberto Gismonti"
INDEX 00 08:48:12
FILE "03 - Ciranda Nordestina.wav" WAVE
INDEX 01 00:00:00
TRACK 04 AUDIO
TITLE "Magico"
PERFORMER "Egberto Gismonti"
INDEX 00 09:57:47
FILE "04 - Magico.wav" WAVE
INDEX 01 00:00:00
TRACK 05 AUDIO
TITLE "Maracuta"
PERFORMER "Egberto Gismonti"
INDEX 00 07:40:52
FILE "05 - Maracuta.wav" WAVE
INDEX 01 00:00:00
TRACK 06 AUDIO
TITLE "Salvador"
PERFORMER "Egberto Gismonti"
INDEX 00 08:19:65
FILE "06 - Salvador.wav" WAVE
INDEX 01 00:00:00

Доп. информация:
Personnel:
Egberto Gismonti (piano, guitar)
Mauro Senise (flute, alto & soprano saxophone)
Jan Garbarek (soprano saxophone)
Zeca Assumpcao (bass)
Charlie Haden (bass)
Nena (drums, percussion)
Collin Walcott (tabla).


Диск взят с другого трекера. Спасибо smurf781
16:06
366
Нет комментариев. Ваш будет первым!