Поиск

(ECM, Experimental Big Band, Contemporary Jazz) [CD] Berlin Contemporary Jazz Orchestra - Berlin Contemporary Jazz Orchestra conducted by Alexander von Schlippenbach - 1990, FLAC (tracks+.cue), lossless

(ECM, Experimental Big Band, Contemporary Jazz) [CD] Berlin Contemporary Jazz Orchestra - Berlin Contemporary Jazz Orchestra conducted by Alexander von Schlippenbach - 1990, FLAC (tracks+.cue), lossless
Berlin Contemporary Jazz Orchestra / Berlin Contemporary Jazz Orchestra conducted by Alexander von Schlippenbach
Жанр: ECM, Experimental Big Band, Contemporary Jazz
Носитель: CD
Год издания: 1990
Издатель (лейбл): ECM Records
Номер по каталогу: ECM 1409
Аудиокодек: FLAC (*.flac)
Тип рипа: tracks+.cue
Битрейт аудио: lossless
Продолжительность: 49:50
Источник (релизер): escrowl
Наличие сканов в содержимом раздачи: front + back
Треклист:
01. Ana (Kenny Wheeler) 22:29
02. Salz (Misha Mengelberg) 7:41
03. Reef und Kneebus (Misha Mengelberg) 19:28
Recorded May 1989 at Studio 10, RIAS Berlin
Release date: 01.09.1990
 
Состав
Berlin Contemporary Jazz Orchestra
Thomas Heberer Trumpet
Henry Lowther Trumpet
Kenny Wheeler Trumpet, Flugelhorn
Paul van Kemenade Alto Saxophone
Felix Wahnschaffe Alto Saxophone
Gerd Dudek Soprano Saxophone, Tenor Saxophone, Clarinet, Flute
Walter Gauchel Tenor Saxophone
E. L. Petrowsky Baritone Saxophone
Willem Breuker Baritone Saxophone
Henning Berg Trombone
Hermann Breuer Trombone
Hubert Katzenbeier Trombone
Utz Zimmermann Bass Trombone
Aki Takase Piano
Günter Lenz Bass
Ed Thigpen Drums
Misha Mengelberg Piano
Alexander von Schlippenbach Conductor
 
ecmreviews.com
The Berlin Contemporary Jazz Orchestra was begun in 1988 as the brainchild of Alexander von Schlippenbach. A decorated composer and student of B. A. Zimmermann, Schlippenbach is perhaps best known as the founder of the Globe Unity Orchestra, which spurred the 1960s jazz scene into the first of many influential phases. This self-titled album is the BCJO’s group’s debut, recorded when the outfit was all of a year old, and features a stunning array of musicians, including trumpeter Kenny Wheeler, reed man and flutist Gerd Dudek, baritone saxophonist E. L. Petrowsky, bass clarinetist Willem Breuker, and pianist Misha Mengelberg.
The set is a triptych of moods and configurations, of which the first, Ana, comes to us from the mind of Kenny Wheeler. From the somber piano intro, one might think a Keith Jarrett solo concert was in store. This illusion is quickly banished by the wealth of instrumental forces at hand. With horns taking the upper range and arco bass the lower, drums ride the outer circle while a hefty trombone strings along some rounded hits from the band. Between the deftly woven brass tapestry and beautiful solo turn from pianist (and wife of Schlippenbach) Aki Takase, Wheeler dominates the solo-sphere —that is, until Petrowsky’s tenor throws some much-needed fuel into the fire. This slides into an upbeat bridge before ending on a free-for-all and a sparkling piano flourish.
The album’s remainder was penned by Misha Mengelberg, whose keys can be found poking their thoughts here and there. The conventional horn intro of Salz wipes the blackboard clean for the frantic bass clarinet lessons of Willem Breuker—who, along with Petrowsky, is one of the group’s shining stars—and the composer’s own frolicking pianism. Another of the album’s best solos resides herein, this time from the tenor of Dudek, who also threads in a few lines of flute.
The lightly syncopated vertigo that welcomes us into Reef und Kneebus promises the album’s best engagements, but instead turns into an over-long meander between a few stellar points. Wheeler, though, is as engaging as always, and the swing comes back into the picture toward the end. This final piece plays more like a series of unrelated vignettes and feels a touch out of place.
This is a full recording, one that accentuates the breezy rhythm section and keeps the brass well separated. The band blows free and easy and tries its best to keep us out of the compositional rut with some freer gesticulations. A respectable outing that could have stood to be spun blindfolded a few times and loosed unaided, but which nevertheless balances its conscious progressions well.
 
Лог создания рипа
Exact Audio Copy V1.0 beta 3 from 29. August 2011
EAC extraction logfile from 27. May 2012, 22:12
Berlin Contemporary Jazz Orchestra / Berlin Contemporary Jazz Orchestra
Used drive : SlimtypeDVD A DS8A5SH Adapter: 0 ID: 0
Read mode : Secure
Utilize accurate stream : Yes
Defeat audio cache : Yes
Make use of C2 pointers : No
Read offset correction : 6
Overread into Lead-In and Lead-Out : No
Fill up missing offset samples with silence : Yes
Delete leading and trailing silent blocks : No
Null samples used in CRC calculations : Yes
Used interface : Native Win32 interface for Win NT & 2000
Gap handling : Appended to previous track
Used output format : User Defined Encoder
Selected bitrate : 896 kBit/s
Quality : High
Add ID3 tag : No
Command line compressor : C:\Program Files (x86)\FLAC\flac.exe
Additional command line options : -8 -V -T "ARTIST=%artist%" -T "TITLE=%title%" -T "ALBUM=%albumtitle%" -T "DATE=%year%" -T "TRACKNUMBER=%tracknr%" -T "GENRE=%genre%" -T "PERFORMER=%albuminterpret%" -T "COMPOSER=%composer%" %haslyrics%--tag-from-file=LYRICS="%lyricsfile%"%haslyrics% -T "ALBUMARTIST=%albumartist%" -T "DISCNUMBER=%cdnumber%" -T "TOTALDISCS=%totalcds%" -T "TOTALTRACKS=%numtracks%" -T "COMMENT=%comment%" %source% -o %dest%
TOC of the extracted CD
Track | Start | Length | Start sector | End sector
---------------------------------------------------------
1 | 0:00.00 | 22:39.62 | 0 | 101986
2 | 22:39.62 | 7:42.00 | 101987 | 136636
3 | 30:21.62 | 19:28.38 | 136637 | 224274
Track 1
Filename C:\EAC\Berlin Contemporary Jazz Orchestra - Berlin Contemporary Jazz Orchestra (1990) - [FLAC]\01 Ana.wav
Pre-gap length 0:00:02.00
Peak level 100.0 %
Extraction speed 1.4 X
Track quality 100.0 %
Test CRC 63EBF8EB
Copy CRC 63EBF8EB
Cannot be verified as accurate (confidence 1) [30F9451A], AccurateRip returned [C66B2F8B] (AR v2)
Copy OK
Track 2
Filename C:\EAC\Berlin Contemporary Jazz Orchestra - Berlin Contemporary Jazz Orchestra (1990) - [FLAC]\02 Salz.wav
Pre-gap length 0:00:09.56
Peak level 97.7 %
Extraction speed 1.7 X
Track quality 100.0 %
Test CRC FDA5BE51
Copy CRC FDA5BE51
Cannot be verified as accurate (confidence 1) [0EF8790C], AccurateRip returned [37D9E560] (AR v2)
Copy OK
Track 3
Filename C:\EAC\Berlin Contemporary Jazz Orchestra - Berlin Contemporary Jazz Orchestra (1990) - [FLAC]\03 Reef und Kneebus.wav
Pre-gap length 0:00:00.69
Peak level 97.7 %
Extraction speed 2.1 X
Track quality 100.0 %
Test CRC 0D4D3E9C
Copy CRC 0D4D3E9C
Track not present in AccurateRip database
Copy OK
2 track(s) could not be verified as accurate
1 track(s) not present in the AccurateRip database
No tracks could be verified as accurate
You may have a different pressing from the one(s) in the database
No errors occurred
End of status report
---- CUETools DB Plugin V2.1.3
[CTDB TOCID: v8YyG.q5Lb_xalAfRWnmpnUNgBc-] disk not present in database, Submit result: v8YyG.q5Lb_xalAfRWnmpnUNgBc- has been uploaded
==== Log checksum C0EFDC94915E44AC5C9EB7C7D365DFFB1E38860CA96F74FB313D766134BDB885 ====
 
Содержание индексной карты (.CUE)
REM GENRE "Big Band"
REM DATE 1990
REM DISCID 1B0BAE03
REM COMMENT "ExactAudioCopy v1.0b3"
PERFORMER "Berlin Contemporary Jazz Orchestra"
TITLE "Berlin Contemporary Jazz Orchestra"
FILE "01 Ana.wav" WAVE
TRACK 01 AUDIO
TITLE "Ana"
PERFORMER "Berlin Contemporary Jazz Orchestra"
INDEX 01 00:00:00
TRACK 02 AUDIO
TITLE "Salz"
PERFORMER "Berlin Contemporary Jazz Orchestra"
INDEX 00 22:30:20
FILE "02 Salz.wav" WAVE
INDEX 01 00:00:00
TRACK 03 AUDIO
TITLE "Reef und Kneebus"
PERFORMER "Berlin Contemporary Jazz Orchestra"
INDEX 00 07:41:23
FILE "03 Reef und Kneebus.wav" WAVE
INDEX 01 00:00:00
Другие мои раздачи на трекере
21:50
276
Нет комментариев. Ваш будет первым!