Вы используете незарегистрированную версию компонента "Вкладки"!

Поиск

(ECM / Contemporary Jazz, Free Improvisation) [WEB] Lumen Drones - Lumen Drones - 2014, FLAC (tracks), lossless

(ECM / Contemporary Jazz, Free Improvisation) [WEB] Lumen Drones - Lumen Drones - 2014, FLAC (tracks), lossless
Треклист:
Lumen Drones
Жанр: Contemporary Jazz, Free Improvisation
Носитель: WEB
Год издания: 2014
Издатель (лейбл): ECM
Номер по каталогу: 2434
Страна исполнителя (группы): Norway
Аудиокодек: FLAC (*.flac)
Тип рипа: tracks
Битрейт аудио: lossless
Продолжительность: 00:50:05
Наличие сканов: Front, Digital Booklet
Источник: what.cd
HD => FLAC

01. Dark Sea (4:00)
02. Ira Furore (12:16)
03. Anemone (7:41)
04. Echo Plexus (8:03)
05. Lux (3:03)
06. Husky (1:32)
07. Keelwater (6:15)
08. Svartaskjær (7:16)
Lumen Drones:
Nils Økland - fiddles
Per Steinar Lie - guitars
Ørjan Haaland - drums
 
Об исполнителе
Lumen Drones is a fascinating and powerful collaboration between Hardanger fiddle master Nils Økland and Per Stainar Lie and Ørjan Haaland, respectively guitarist and drummer with Norwegian ‘post-rock’ group The Low Frequency In Stereo. The participants describe their project as a psychedelic drone band, but its stylistic reach is broad and evocative and will trigger many musical associations. Specific influences include the Doors, The Velvet Underground, Sonic Youth, Durutti Column and “the jazz of the Dave Pike set”, but the Lumen Drones also rove through modal, ambient, multi-folk, minimal and noise zones, making exciting music all the way…
 
Отчёты
 
Динамический диапазон
foobar2000 1.2.2 / Замер динамического диапазона (DR) 1.1.1
Дата отчёта: 2014-11-30 18:56:37
--------------------------------------------------------------------------------
Анализ: Lumen Drones / Lumen Drones
--------------------------------------------------------------------------------
DR Пики RMS Продолжительность трека
--------------------------------------------------------------------------------
DR10 -0.70 дБ -15.82 дБ 4:00 ?-Dark Sea
DR9 -2.63 дБ -14.79 дБ 12:16 ?-Ira Furore
DR8 -2.96 дБ -13.45 дБ 7:41 ?-Anemone
DR8 -3.25 дБ -13.96 дБ 8:03 ?-Echo Plexus
DR10 -4.04 дБ -16.94 дБ 3:03 ?-Lux
DR9 -8.12 дБ -21.39 дБ 1:32 ?-Husky
DR11 -2.68 дБ -19.38 дБ 6:15 ?-Keelwater
DR9 -2.57 дБ -13.43 дБ 7:16 ?-Svartaskjær
--------------------------------------------------------------------------------
Количество треков: 8
Реальные значения DR: DR9
Частота: 44100 Гц
Каналов: 2
Разрядность: 16
Битрейт: 867 кбит/с
Кодек: FLAC
================================================================================
 
Лог проверки качества
-----------------------
DON'T MODIFY THIS FILE
-----------------------
PERFORMER: auCDtect Task Manager, ver. 1.6.0 RC1 build 1.6.0.1
Copyright (c) 2008-2010 y-soft. All rights reserved
http://y-soft.org
ANALYZER: auCDtect: CD records authenticity detector, version 0.8.2
Copyright (c) 2004 Oleg Berngardt. All rights reserved.
Copyright (c) 2004 Alexander Djourik. All rights reserved.
FILE: 08 - Svartaskjær.flac
Size: 47371922 Hash: 6A660171F9D2C7933A48A7C17502EC5C Accuracy: -m0
Conclusion: CDDA 100%
Signature: 2444A10D88E1C5AF91C8D9553E544142D972ADE6
FILE: 07 - Keelwater.flac
Size: 25603496 Hash: E840D63DA24C92A289685B25AB85686E Accuracy: -m0
Conclusion: CDDA 100%
Signature: A20D3DE554F3DA22137158E2EEB8B0619B520674
FILE: 06 - Husky.flac
Size: 5903584 Hash: B4DDA72B532EB6985BB898C7E9B2F9B8 Accuracy: -m0
Conclusion: CDDA 100%
Signature: F3A5D461B49823480BC299023C33D8FAD76C29C9
FILE: 05 - Lux.flac
Size: 17078051 Hash: E3D38C5DA3E64749AA01076910F44B0F Accuracy: -m0
Conclusion: CDDA 100%
Signature: 20607961FF9D247E96712D57EAC0B5269393DE9A
FILE: 04 - Echo Plexus.flac
Size: 47468053 Hash: 6A80BA4579770A92C1F9454842E69F66 Accuracy: -m0
Conclusion: CDDA 100%
Signature: 069DA0C14F7F30CFF25CB493065F0DEA46570127
FILE: 03 - Anemone.flac
Size: 39332353 Hash: CB36655065E2B19A8E3A4E0B254D9962 Accuracy: -m0
Conclusion: CDDA 100%
Signature: 45FEB17D713F0934D9B560978132F58605FA1E4E
FILE: 02 - Ira Furore.flac
Size: 75987172 Hash: DD5B483D4D5642762B4E20FAB3482D8C Accuracy: -m0
Conclusion: CDDA 100%
Signature: 7EA3C4D3A7092341DC4AEE86D5CD8D0CD3176FC8
FILE: 01 - Dark Sea.flac
Size: 22440108 Hash: 3B4308385306344EEA6867C53DB0F611 Accuracy: -m0
Conclusion: CDDA 100%
Signature: 4DE035A4BF265F3B606E2D2BFEB9C26491DB3452
 
Доп. информация
Релиз полностью готов к воспроизведению в аудиоплеере (я ориентировался на foobar2000)При скачивании, если необходимо, переименуйте папку, в которой будет находиться альбомБольшая просьба к скачавшим поддерживать раздачу! Помогайте другим, ведь вам тоже может понадобиться помощь!Не забываем говорить "Спасибо"!Комментарии приветствуются!
По всем вопросам пишите личное сообщение пользователю M0p94ok.
06:41
156
Нет комментариев. Ваш будет первым!