Поиск

(ECM, Classical Crossover, Modern Creative, Chamber Music) [CD] Ketil Bjornstad (Bjørnstad) - A Passion for John Donne - 2014, FLAC (tracks+.cue), lossless

(ECM, Classical Crossover, Modern Creative, Chamber Music) [CD] Ketil Bjornstad (Bjørnstad) - A Passion for John Donne - 2014, FLAC (tracks+.cue), lossless
Треклист:
Ketil Bjørnstad - A Passion for John Donne Жанр: ECM, Classical Crossover, Modern Creative, Chamber
Носитель: CD
Год издания: 2014
Издатель (лейбл): ECM Records
Номер по каталогу: ECM 2394
Аудиокодек: FLAC (*.flac)
Тип рипа: tracks+.cue
Битрейт аудио: lossless
Продолжительность: 72:50
Источник (релизер): ruskaval
Наличие сканов в содержимом раздачи: да
Треклист:
01. Introitus - a passion for John Donne (3:08)
02. Thou hast made me (7:54)
03. A fever (5:44)
04. Death, be not proud (3:40)
05. Interlude no. 1 (2:49)
06. The legacy (3:49)
07. Batter my heart, three personed God (3:28)
08. A nocturnal upon St. Lucy's day (8:34)
09. Farewell to love (7:32)
10. Interlude no. 2 (4:02)
11. Since she whom I loved hath paid her last dept (2:22)
12. A valediction, forbidden mourning (8:21)
13. Oh, to vex me, contraries meet in one (5:03)
14. Interlude no. 3 (2:34)
15. There we leave you (3:51)
Personnel:
Ketil Bjørnstad - piano
Håkon Kornstad - saxophone, flute, voice
Birger Mistereggen - percussion
Oslo Chamber Choir
Håkon Daniel Nystedt - conductor
 
 
Лог создания рипа
Exact Audio Copy V1.0 beta 3 from 29. August 2011
EAC extraction logfile from 25. November 2014, 15:41
Ketil Bjornstad / A Passion for John Donne
Used drive : TSSTcorpCDDVDW SH-224BB Adapter: 0 ID: 0
Read mode : Secure
Utilize accurate stream : Yes
Defeat audio cache : Yes
Make use of C2 pointers : No
Read offset correction : 6
Overread into Lead-In and Lead-Out : No
Fill up missing offset samples with silence : Yes
Delete leading and trailing silent blocks : No
Null samples used in CRC calculations : Yes
Used interface : Native Win32 interface for Win NT & 2000
Gap handling : Appended to previous track
Used output format : User Defined Encoder
Selected bitrate : 768 kBit/s
Quality : High
Add ID3 tag : No
Command line compressor : C:\Program Files (x86)\Exact Audio Copy\Flac\flac.exe
Additional command line options : -8 -V -T "ARTIST=%artist%" -T "TITLE=%title%" -T "ALBUM=%albumtitle%" -T "DATE=%year%" -T "TRACKNUMBER=%tracknr%" -T "TOTALTRACKS=%numtracks%" -T "GENRE=%genre%" -T "ALBUMARTIST=%albumartist%" -T "ALBUM ARTIST=%albumartist%" -T "COMMENT=EAC Secure Mode, Test & Copy, AccurateRip, FLAC -8" %source%
TOC of the extracted CD
Track | Start | Length | Start sector | End sector
---------------------------------------------------------
1 | 0:00.00 | 3:08.12 | 0 | 14111
2 | 3:08.12 | 7:54.18 | 14112 | 49679
3 | 11:02.30 | 5:43.46 | 49680 | 75450
4 | 16:46.01 | 3:39.67 | 75451 | 91942
5 | 20:25.68 | 2:48.72 | 91943 | 104614
6 | 23:14.65 | 3:48.49 | 104615 | 121763
7 | 27:03.39 | 3:28.19 | 121764 | 137382
8 | 30:31.58 | 8:33.54 | 137383 | 175911
9 | 39:05.37 | 7:31.73 | 175912 | 209809
10 | 46:37.35 | 4:02.09 | 209810 | 227968
11 | 50:39.44 | 2:22.15 | 227969 | 238633
12 | 53:01.59 | 8:20.59 | 238634 | 276192
13 | 61:22.43 | 5:03.09 | 276193 | 298926
14 | 66:25.52 | 2:33.39 | 298927 | 310440
15 | 68:59.16 | 3:50.53 | 310441 | 327743
Track 1
Filename C:\AneL\01 - Introitus - a passion for John Donne.wav
Pre-gap length 0:00:02.00
Peak level 42.9 %
Extraction speed 2.8 X
Track quality 100.0 %
Test CRC A40C5A17
Copy CRC A40C5A17
Track not present in AccurateRip database
Copy OK
Track 2
Filename C:\AneL\02 - Thou hast made me.wav
Peak level 71.2 %
Extraction speed 3.5 X
Track quality 100.0 %
Test CRC 0C039A98
Copy CRC 0C039A98
Track not present in AccurateRip database
Copy OK
Track 3
Filename C:\AneL\03 - A fever.wav
Peak level 63.1 %
Extraction speed 3.2 X
Track quality 99.9 %
Test CRC 04268ED6
Copy CRC 04268ED6
Track not present in AccurateRip database
Copy OK
Track 4
Filename C:\AneL\04 - Death, be not proud.wav
Peak level 56.4 %
Extraction speed 3.9 X
Track quality 100.0 %
Test CRC 40614568
Copy CRC 40614568
Track not present in AccurateRip database
Copy OK
Track 5
Filename C:\AneL\05 - Interlude no. 1.wav
Peak level 99.6 %
Extraction speed 2.7 X
Track quality 99.9 %
Test CRC AEA9DB6E
Copy CRC AEA9DB6E
Track not present in AccurateRip database
Copy OK
Track 6
Filename C:\AneL\06 - The legacy.wav
Peak level 83.3 %
Extraction speed 4.2 X
Track quality 100.0 %
Test CRC 1CB30699
Copy CRC 1CB30699
Track not present in AccurateRip database
Copy OK
Track 7
Filename C:\AneL\07 - Batter my heart, three personed God.wav
Peak level 65.2 %
Extraction speed 4.3 X
Track quality 100.0 %
Test CRC 85380B99
Copy CRC 85380B99
Track not present in AccurateRip database
Copy OK
Track 8
Filename C:\AneL\08 - A nocturnal upon St. Lucy's day.wav
Peak level 99.0 %
Extraction speed 5.0 X
Track quality 100.0 %
Test CRC 31497640
Copy CRC 31497640
Track not present in AccurateRip database
Copy OK
Track 9
Filename C:\AneL\09 - Farewell to love.wav
Peak level 98.7 %
Extraction speed 5.3 X
Track quality 100.0 %
Test CRC C14A4984
Copy CRC C14A4984
Track not present in AccurateRip database
Copy OK
Track 10
Filename C:\AneL\10 - Interlude no. 2.wav
Peak level 100.0 %
Extraction speed 5.2 X
Track quality 100.0 %
Test CRC 99E97B0B
Copy CRC 99E97B0B
Track not present in AccurateRip database
Copy OK
Track 11
Filename C:\AneL\11 - Since she whom I loved hath paid her last dept.wav
Peak level 55.5 %
Extraction speed 4.8 X
Track quality 100.0 %
Test CRC A23AAB6B
Copy CRC A23AAB6B
Track not present in AccurateRip database
Copy OK
Track 12
Filename C:\AneL\12 - A valediction, forbidden mourning.wav
Peak level 85.0 %
Extraction speed 6.0 X
Track quality 100.0 %
Test CRC 66C9F90A
Copy CRC 66C9F90A
Track not present in AccurateRip database
Copy OK
Track 13
Filename C:\AneL\13 - Oh, to vex me, contraries meet in one.wav
Peak level 74.1 %
Extraction speed 4.8 X
Track quality 99.9 %
Test CRC BB5220AB
Copy CRC BB5220AB
Track not present in AccurateRip database
Copy OK
Track 14
Filename C:\AneL\14 - Interlude no. 3.wav
Peak level 61.6 %
Extraction speed 5.4 X
Track quality 100.0 %
Test CRC D5633136
Copy CRC D5633136
Track not present in AccurateRip database
Copy OK
Track 15
Filename C:\AneL\15 - There we leave you.wav
Peak level 93.7 %
Extraction speed 5.9 X
Track quality 100.0 %
Test CRC 49653FBA
Copy CRC 49653FBA
Track not present in AccurateRip database
Copy OK
None of the tracks are present in the AccurateRip database
No errors occurred
End of status report
==== Log checksum 0587158F1BB307809EA2B72443480AB079ED87B101E2BB06CEC2EE3453D89DE2 ====
 
Содержание индексной карты (.CUE)
REM GENRE "Chamber Music"
REM DATE 2014
REM DISCID DD11110F
REM COMMENT "ExactAudioCopy v1.0b3"
PERFORMER "Ketil Bjornstad"
TITLE "A Passion for John Donne"
FILE "01 - Introitus - a passion for John Donne.wav" WAVE
TRACK 01 AUDIO
TITLE "Introitus - a passion for John Donne"
PERFORMER "Ketil Bjornstad"
INDEX 01 00:00:00
FILE "02 - Thou hast made me.wav" WAVE
TRACK 02 AUDIO
TITLE "Thou hast made me"
PERFORMER "Ketil Bjornstad"
INDEX 01 00:00:00
FILE "03 - A fever.wav" WAVE
TRACK 03 AUDIO
TITLE "A fever"
PERFORMER "Ketil Bjornstad"
INDEX 01 00:00:00
FILE "04 - Death, be not proud.wav" WAVE
TRACK 04 AUDIO
TITLE "Death, be not proud"
PERFORMER "Ketil Bjornstad"
INDEX 01 00:00:00
FILE "05 - Interlude no. 1.wav" WAVE
TRACK 05 AUDIO
TITLE "Interlude no. 1"
PERFORMER "Ketil Bjornstad"
INDEX 01 00:00:00
FILE "06 - The legacy.wav" WAVE
TRACK 06 AUDIO
TITLE "The legacy"
PERFORMER "Ketil Bjornstad"
INDEX 01 00:00:00
FILE "07 - Batter my heart, three personed God.wav" WAVE
TRACK 07 AUDIO
TITLE "Batter my heart, three personed God"
PERFORMER "Ketil Bjornstad"
INDEX 01 00:00:00
FILE "08 - A nocturnal upon St. Lucy's day.wav" WAVE
TRACK 08 AUDIO
TITLE "A nocturnal upon St. Lucy's day"
PERFORMER "Ketil Bjornstad"
INDEX 01 00:00:00
FILE "09 - Farewell to love.wav" WAVE
TRACK 09 AUDIO
TITLE "Farewell to love"
PERFORMER "Ketil Bjornstad"
INDEX 01 00:00:00
FILE "10 - Interlude no. 2.wav" WAVE
TRACK 10 AUDIO
TITLE "Interlude no. 2"
PERFORMER "Ketil Bjornstad"
INDEX 01 00:00:00
FILE "11 - Since she whom I loved hath paid her last dept.wav" WAVE
TRACK 11 AUDIO
TITLE "Since she whom I loved hath paid her last dept"
PERFORMER "Ketil Bjornstad"
INDEX 01 00:00:00
FILE "12 - A valediction, forbidden mourning.wav" WAVE
TRACK 12 AUDIO
TITLE "A valediction, forbidden mourning"
PERFORMER "Ketil Bjornstad"
INDEX 01 00:00:00
FILE "13 - Oh, to vex me, contraries meet in one.wav" WAVE
TRACK 13 AUDIO
TITLE "Oh, to vex me, contraries meet in one"
PERFORMER "Ketil Bjornstad"
INDEX 01 00:00:00
FILE "14 - Interlude no. 3.wav" WAVE
TRACK 14 AUDIO
TITLE "Interlude no. 3"
PERFORMER "Ketil Bjornstad"
INDEX 01 00:00:00
FILE "15 - There we leave you.wav" WAVE
TRACK 15 AUDIO
TITLE "There we leave you"
PERFORMER "Ketil Bjornstad"
INDEX 01 00:00:00
Download available for power users only.
15:09
229
Нет комментариев. Ваш будет первым!