Поиск

(Easy Listening, Swing, Cool Jazz) [CD] Anita O'Day - Eight Classic Albums (4 CD) - 2011, FLAC (image+.cue), lossless

(Easy Listening, Swing, Cool Jazz) [CD] Anita O'Day - Eight Classic Albums (4 CD) - 2011, FLAC (image+.cue), lossless
Треклист:
Anita O'Day / Eight Classic Albums (4 CD)
Жанр: Easy Listening, Swing, Cool Jazz
Носитель: CD
Страна-производитель диска (релиза): UK
Год издания: 2011
Издатель (лейбл): Real Gone ‎
Номер по каталогу: RGJCD276
Аудиокодек: FLAC (*.flac)
Тип рипа: image+.cue
Битрейт аудио: lossless
Продолжительность: 04:59:22
Источник (релизер): DC hub
Наличие сканов в содержимом раздачи: да
Треклист:
 
CD1 (01:17:49)
This Is Anita - 1956
1 You're The Top 2:23
2 Honeysuckle Rose 3:12
3 A Nightingale Sang In Berkeley Square 3:59
4 Who Cares? 3:12
5 I Can't Get Started 3:52
6 Fine And Dandy 2:23
7 As Long As I Live 3:37
8 No Moon At All 2:26
9 Time After Time 4:05
10 I'll See You In My Dreams 2:48
11 I Fall In Love Too Easily 2:52
12 Beautiful Love 2:36
Pick Yourself Up With Anita O'Day - 1956
13 Don't Be That Way 2:30
14 Let's Face The Music And Dance 3:14
15 I Never Had A Chance 4:21
16 Stompin' At The Savoy 3:16
17 Pick Yourself Up 3:04
18 Stars Fell On Alabama 2:50
19 Sweet Georgia Brown 4:12
20 I Won't Dance 3:24
21 Man With A Horn 3:55
22 I Used To Be Color Blind 3:07
23 There's A Lull In My Life 3:16
24 Let's Begin 2:19
 
Лог создания рипа
Exact Audio Copy V1.1 from 23. June 2015
EAC extraction logfile from 22. October 2017, 16:35
Anita O'Day , / Eight Classic Albums
Used drive : PLEXTOR DVDR PX-760A Adapter: 1 ID: 1
Read mode : Secure
Utilize accurate stream : Yes
Defeat audio cache : Yes
Make use of C2 pointers : No
Read offset correction : 30
Overread into Lead-In and Lead-Out : No
Fill up missing offset samples with silence : Yes
Delete leading and trailing silent blocks : No
Null samples used in CRC calculations : Yes
Used interface : Native Win32 interface for Win NT & 2000
Used output format : User Defined Encoder
Selected bitrate : 1024 kBit/s
Quality : High
Add ID3 tag : No
Command line compressor : C:\Program Files (x86)\FLAC\flac.exe
Additional command line options : -5 -V -T "ARTIST=%artist%" -T "TITLE=%title%" -T "ALBUM=%albumtitle%" -T "DATE=%year%" -T "TRACKNUMBER=%tracknr%" -T "GENRE=%genre%" -T "COMMENT=[oStereo.ru]" %source%
TOC of the extracted CD
Track | Start | Length | Start sector | End sector
---------------------------------------------------------
1 | 0:00.00 | 2:25.06 | 0 | 10880
2 | 2:25.06 | 3:14.12 | 10881 | 25442
3 | 5:39.18 | 4:01.38 | 25443 | 43555
4 | 9:40.56 | 3:14.43 | 43556 | 58148
5 | 12:55.24 | 3:54.14 | 58149 | 75712
6 | 16:49.38 | 2:25.56 | 75713 | 86643
7 | 19:15.19 | 3:39.28 | 86644 | 103096
8 | 22:54.47 | 2:28.17 | 103097 | 114213
9 | 25:22.64 | 4:07.32 | 114214 | 132770
10 | 29:30.21 | 2:50.11 | 132771 | 145531
11 | 32:20.32 | 2:54.23 | 145532 | 158604
12 | 35:14.55 | 2:38.02 | 158605 | 170456
13 | 37:52.57 | 2:32.62 | 170457 | 181918
14 | 40:25.44 | 3:16.17 | 181919 | 196635
15 | 43:41.61 | 4:23.53 | 196636 | 216413
16 | 48:05.39 | 3:18.73 | 216414 | 231336
17 | 51:24.37 | 3:06.55 | 231337 | 245341
18 | 54:31.17 | 2:52.16 | 245342 | 258257
19 | 57:23.33 | 4:14.21 | 258258 | 277328
20 | 61:37.54 | 3:26.46 | 277329 | 292824
21 | 65:04.25 | 3:57.12 | 292825 | 310611
22 | 69:01.37 | 3:09.44 | 310612 | 324830
23 | 72:11.06 | 3:18.43 | 324831 | 339723
24 | 75:29.49 | 2:19.37 | 339724 | 350185
Range status and errors
Selected range
Filename D:\Anita O'Day ‎– 8 Classic Albums - CD1 - RGJ.wav
Peak level 100.0 %
Extraction speed 1.2 X
Range quality 100.0 %
Copy CRC A6F8C944
Copy OK
No errors occurred
AccurateRip summary
Track 1 accurately ripped (confidence 10) [E79B15A6] (AR v2)
Track 2 accurately ripped (confidence 10) [F8813CA2] (AR v2)
Track 3 accurately ripped (confidence 10) [9009F03F] (AR v2)
Track 4 accurately ripped (confidence 10) [AEA0A5FE] (AR v2)
Track 5 accurately ripped (confidence 10) [5150405C] (AR v2)
Track 6 accurately ripped (confidence 10) [83D73A6A] (AR v2)
Track 7 accurately ripped (confidence 10) [6E14F4FD] (AR v2)
Track 8 accurately ripped (confidence 10) [2A8F9CAC] (AR v2)
Track 9 accurately ripped (confidence 10) [7B5E82B6] (AR v2)
Track 10 accurately ripped (confidence 10) [24373BA5] (AR v2)
Track 11 accurately ripped (confidence 10) [1668D6C6] (AR v2)
Track 12 accurately ripped (confidence 10) [C156768A] (AR v2)
Track 13 accurately ripped (confidence 11) [42564896] (AR v2)
Track 14 accurately ripped (confidence 11) [D790C7FF] (AR v2)
Track 15 accurately ripped (confidence 11) [17E999F5] (AR v2)
Track 16 accurately ripped (confidence 11) [06840BE7] (AR v2)
Track 17 accurately ripped (confidence 11) [3DE5AB11] (AR v2)
Track 18 accurately ripped (confidence 11) [B93A025D] (AR v2)
Track 19 accurately ripped (confidence 10) [0343B9AD] (AR v2)
Track 20 accurately ripped (confidence 11) [038F29FE] (AR v2)
Track 21 accurately ripped (confidence 11) [B5373062] (AR v2)
Track 22 accurately ripped (confidence 11) [C0F93E5A] (AR v2)
Track 23 accurately ripped (confidence 11) [752839D2] (AR v2)
Track 24 accurately ripped (confidence 10) [39AD2431] (AR v2)
All tracks accurately ripped
End of status report
==== Log checksum 988D28910DB895B14CEBCE4C0BE9C089343053CA1A826B80A62000485465E8A4 ====
 
Содержание индексной карты (.CUE)
REM DATE 2011
REM DISCID 5B123D18
REM COMMENT "ExactAudioCopy v1.1"
PERFORMER "Anita O'Day , "
TITLE "Eight Classic Albums"
FILE "Anita O'Day ‎– 8 Classic Albums - CD1 - RGJ.flac" WAVE
TRACK 01 AUDIO
TITLE "You're The Top"
PERFORMER "Anita O'Day , "
FLAGS DCP
INDEX 01 00:00:00
TRACK 02 AUDIO
TITLE "Honeysuckle Rose"
PERFORMER "Anita O'Day , "
FLAGS DCP
INDEX 01 02:25:06
TRACK 03 AUDIO
TITLE "A Nightingale Sang In Berkeley Square"
PERFORMER "Anita O'Day , "
FLAGS DCP
INDEX 01 05:39:18
TRACK 04 AUDIO
TITLE "Who Cares?"
PERFORMER "Anita O'Day , "
FLAGS DCP
INDEX 01 09:40:56
TRACK 05 AUDIO
TITLE "I Can't Get Started"
PERFORMER "Anita O'Day , "
FLAGS DCP
INDEX 01 12:55:24
TRACK 06 AUDIO
TITLE "Fine And Dandy"
PERFORMER "Anita O'Day , "
FLAGS DCP
INDEX 01 16:49:38
TRACK 07 AUDIO
TITLE "As Long As I Live"
PERFORMER "Anita O'Day , "
FLAGS DCP
INDEX 01 19:15:19
TRACK 08 AUDIO
TITLE "No Moon At All"
PERFORMER "Anita O'Day , "
FLAGS DCP
INDEX 01 22:54:47
TRACK 09 AUDIO
TITLE "Time After Time"
PERFORMER "Anita O'Day , "
FLAGS DCP
INDEX 01 25:22:64
TRACK 10 AUDIO
TITLE "I'll See You In My Dreams"
PERFORMER "Anita O'Day , "
FLAGS DCP
INDEX 01 29:30:21
TRACK 11 AUDIO
TITLE "I Fall In Love Too Easily"
PERFORMER "Anita O'Day , "
FLAGS DCP
INDEX 01 32:20:32
TRACK 12 AUDIO
TITLE "Beautiful Love"
PERFORMER "Anita O'Day , "
FLAGS DCP
INDEX 01 35:14:55
TRACK 13 AUDIO
TITLE "Don't Be That Way"
PERFORMER "Anita O'Day , "
FLAGS DCP
INDEX 01 37:52:57
TRACK 14 AUDIO
TITLE "Let's Face The Music And Dance"
PERFORMER "Anita O'Day , "
FLAGS DCP
INDEX 01 40:25:44
TRACK 15 AUDIO
TITLE "I Never Had A Chance"
PERFORMER "Anita O'Day , "
FLAGS DCP
INDEX 01 43:41:61
TRACK 16 AUDIO
TITLE "Stompin' At The Savoy"
PERFORMER "Anita O'Day , "
FLAGS DCP
INDEX 01 48:05:39
TRACK 17 AUDIO
TITLE "Pick Yourself Up"
PERFORMER "Anita O'Day , "
FLAGS DCP
INDEX 01 51:24:37
TRACK 18 AUDIO
TITLE "Stars Fell On Alabama"
PERFORMER "Anita O'Day , "
FLAGS DCP
INDEX 01 54:31:17
TRACK 19 AUDIO
TITLE "Sweet Georgia Brown"
PERFORMER "Anita O'Day , "
FLAGS DCP
INDEX 01 57:23:33
TRACK 20 AUDIO
TITLE "I Won't Dance"
PERFORMER "Anita O'Day , "
FLAGS DCP
INDEX 01 61:37:54
TRACK 21 AUDIO
TITLE "Man With A Horn"
PERFORMER "Anita O'Day , "
FLAGS DCP
INDEX 01 65:04:25
TRACK 22 AUDIO
TITLE "I Used To Be Color Blind"
PERFORMER "Anita O'Day , "
FLAGS DCP
INDEX 01 69:01:37
TRACK 23 AUDIO
TITLE "There's A Lull In My Life"
PERFORMER "Anita O'Day , "
FLAGS DCP
INDEX 01 72:11:06
TRACK 24 AUDIO
TITLE "Let's Begin"
PERFORMER "Anita O'Day , "
FLAGS DCP
INDEX 01 75:29:49
 
CD2 (01:10:37)
Anita Sings The Most - 1957
1 'S Wonderful / They Can't Take That Away From Me 2:55
2 Tenderly 3:19
3 Old Devil Moon 2:50
4 Love Me Or Leave Me 2:32
5 We'll Be Together Again 3:36
6 Stella By Starlight 2:03
7 Taking A Chance On Love 2:20
8 Them There Eyes 2:35
9 I've Got The World On A String 3:57
10 You Turned The Tables On Me 3:39
11 Bewitched, Bothered And Bewildered 3:53
Anita Sings The Winners
12 Take The A Train 2:48
13 Tenderly 2:37
14 A Night In Tunisia 2:33
15 Four 2:47
16 Early Autumn 3:08
17 Four Brothers 2:22
18 Sing, Sing, Sing (With A Swing) 3:29
19 My Funny Valentine 3:34
20 Frenesi 3:01
21 Body And Soul 3:20
22 What's Your Story Morning Glory 3:47
23 Peanut Vendor 2:38
 
Лог создания рипа
Exact Audio Copy V1.1 from 23. June 2015
EAC extraction logfile from 22. October 2017, 17:39
Anita O'Day , / Eight Classic Albums
Used drive : PLEXTOR DVDR PX-760A Adapter: 1 ID: 1
Read mode : Secure
Utilize accurate stream : Yes
Defeat audio cache : Yes
Make use of C2 pointers : No
Read offset correction : 30
Overread into Lead-In and Lead-Out : No
Fill up missing offset samples with silence : Yes
Delete leading and trailing silent blocks : No
Null samples used in CRC calculations : Yes
Used interface : Native Win32 interface for Win NT & 2000
Used output format : User Defined Encoder
Selected bitrate : 1024 kBit/s
Quality : High
Add ID3 tag : No
Command line compressor : C:\Program Files (x86)\FLAC\flac.exe
Additional command line options : -5 -V -T "ARTIST=%artist%" -T "TITLE=%title%" -T "ALBUM=%albumtitle%" -T "DATE=%year%" -T "TRACKNUMBER=%tracknr%" -T "GENRE=%genre%" -T "COMMENT=[oStereo.ru]" %source%
TOC of the extracted CD
Track | Start | Length | Start sector | End sector
---------------------------------------------------------
1 | 0:00.00 | 2:57.51 | 0 | 13325
2 | 2:57.51 | 3:21.65 | 13326 | 28465
3 | 6:19.41 | 2:52.39 | 28466 | 41404
4 | 9:12.05 | 2:34.25 | 41405 | 52979
5 | 11:46.30 | 3:38.37 | 52980 | 69366
6 | 15:24.67 | 2:05.15 | 69367 | 78756
7 | 17:30.07 | 2:22.39 | 78757 | 89445
8 | 19:52.46 | 2:37.67 | 89446 | 101287
9 | 22:30.38 | 3:59.57 | 101288 | 119269
10 | 26:30.20 | 3:41.57 | 119270 | 135901
11 | 30:12.02 | 3:55.60 | 135902 | 153586
12 | 34:07.62 | 2:50.42 | 153587 | 166378
13 | 36:58.29 | 2:39.24 | 166379 | 178327
14 | 39:37.53 | 2:35.51 | 178328 | 190003
15 | 42:13.29 | 2:49.51 | 190004 | 202729
16 | 45:03.05 | 3:10.10 | 202730 | 216989
17 | 48:13.15 | 2:24.46 | 216990 | 227835
18 | 50:37.61 | 3:31.11 | 227836 | 243671
19 | 54:08.72 | 3:36.12 | 243672 | 259883
20 | 57:45.09 | 3:03.42 | 259884 | 273650
21 | 60:48.51 | 3:22.00 | 273651 | 288800
22 | 64:10.51 | 3:49.13 | 288801 | 305988
23 | 67:59.64 | 2:38.08 | 305989 | 317846
Range status and errors
Selected range
Filename D:\Anita O'Day ‎– 8 Classic Albums - CD2 - RGJ.wav
Peak level 100.0 %
Extraction speed 1.2 X
Range quality 99.9 %
Copy CRC 328C69F6
Copy OK
No errors occurred
AccurateRip summary
Track 1 accurately ripped (confidence 9) [56D78440] (AR v2)
Track 2 accurately ripped (confidence 10) [8B26F987] (AR v2)
Track 3 accurately ripped (confidence 10) [2740C07D] (AR v2)
Track 4 accurately ripped (confidence 10) [42090548] (AR v2)
Track 5 accurately ripped (confidence 10) [6BA81999] (AR v2)
Track 6 accurately ripped (confidence 10) [460CE0C3] (AR v2)
Track 7 accurately ripped (confidence 10) [1B17C055] (AR v2)
Track 8 accurately ripped (confidence 10) [D5FE5B55] (AR v2)
Track 9 accurately ripped (confidence 10) [D7CF388D] (AR v2)
Track 10 accurately ripped (confidence 10) [35C1874D] (AR v2)
Track 11 accurately ripped (confidence 10) [85ADC63C] (AR v2)
Track 12 accurately ripped (confidence 11) [3AE6CE7A] (AR v2)
Track 13 accurately ripped (confidence 11) [20913E95] (AR v2)
Track 14 accurately ripped (confidence 11) [098EF886] (AR v2)
Track 15 accurately ripped (confidence 11) [5D51A4D5] (AR v2)
Track 16 accurately ripped (confidence 11) [E0FE9BD6] (AR v2)
Track 17 accurately ripped (confidence 11) [F9E370EB] (AR v2)
Track 18 accurately ripped (confidence 11) [DD7BEA56] (AR v2)
Track 19 accurately ripped (confidence 11) [202E9A46] (AR v2)
Track 20 accurately ripped (confidence 11) [141AB99B] (AR v2)
Track 21 accurately ripped (confidence 11) [67BA4AD9] (AR v2)
Track 22 accurately ripped (confidence 11) [35973D31] (AR v2)
Track 23 accurately ripped (confidence 11) [65E6493F] (AR v2)
All tracks accurately ripped
End of status report
==== Log checksum 3D07A1F5C7A38318E67BB52070A9803AFEEF417CB4528E9E1D730E48A59F84C4 ====
 
Содержание индексной карты (.CUE)
REM DATE 2011
REM DISCID 48108D17
REM COMMENT "ExactAudioCopy v1.1"
PERFORMER "Anita O'Day , "
TITLE "Eight Classic Albums"
FILE "Anita O'Day ‎– 8 Classic Albums - CD2 - RGJ.flac" WAVE
TRACK 01 AUDIO
TITLE "'S Wonderful / They Can't Take That Away From Me"
PERFORMER "Anita O'Day , "
FLAGS DCP
INDEX 01 00:00:00
TRACK 02 AUDIO
TITLE "Tenderly"
PERFORMER "Anita O'Day , "
FLAGS DCP
INDEX 01 02:57:51
TRACK 03 AUDIO
TITLE "Old Devil Moon"
PERFORMER "Anita O'Day , "
FLAGS DCP
INDEX 01 06:19:41
TRACK 04 AUDIO
TITLE "Love Me Or Leave Me"
PERFORMER "Anita O'Day , "
FLAGS DCP
INDEX 01 09:12:05
TRACK 05 AUDIO
TITLE "We'll Be Together Again"
PERFORMER "Anita O'Day , "
FLAGS DCP
INDEX 01 11:46:30
TRACK 06 AUDIO
TITLE "Stella By Starlight"
PERFORMER "Anita O'Day , "
FLAGS DCP
INDEX 01 15:24:67
TRACK 07 AUDIO
TITLE "Taking A Chance On Love"
PERFORMER "Anita O'Day , "
FLAGS DCP
INDEX 01 17:30:07
TRACK 08 AUDIO
TITLE "Them There Eyes"
PERFORMER "Anita O'Day , "
FLAGS DCP
INDEX 01 19:52:46
TRACK 09 AUDIO
TITLE "I've Got The World On A String"
PERFORMER "Anita O'Day , "
FLAGS DCP
INDEX 01 22:30:38
TRACK 10 AUDIO
TITLE "You Turned The Tables On Me"
PERFORMER "Anita O'Day , "
FLAGS DCP
INDEX 01 26:30:20
TRACK 11 AUDIO
TITLE "Bewitched, Bothered And Bewildered"
PERFORMER "Anita O'Day , "
FLAGS DCP
INDEX 01 30:12:02
TRACK 12 AUDIO
TITLE "Take The A Train"
PERFORMER "Anita O'Day , "
FLAGS DCP
INDEX 01 34:07:62
TRACK 13 AUDIO
TITLE "Tenderly"
PERFORMER "Anita O'Day , "
FLAGS DCP
INDEX 01 36:58:29
TRACK 14 AUDIO
TITLE "A Night In Tunisia"
PERFORMER "Anita O'Day , "
FLAGS DCP
INDEX 01 39:37:53
TRACK 15 AUDIO
TITLE "Four"
PERFORMER "Anita O'Day , "
FLAGS DCP
INDEX 01 42:13:29
TRACK 16 AUDIO
TITLE "Early Autumn"
PERFORMER "Anita O'Day , "
FLAGS DCP
INDEX 01 45:03:05
TRACK 17 AUDIO
TITLE "Four Brothers"
PERFORMER "Anita O'Day , "
FLAGS DCP
INDEX 01 48:13:15
TRACK 18 AUDIO
TITLE "Sing, Sing, Sing (With A Swing)"
PERFORMER "Anita O'Day , "
FLAGS DCP
INDEX 01 50:37:61
TRACK 19 AUDIO
TITLE "My Funny Valentine"
PERFORMER "Anita O'Day , "
FLAGS DCP
INDEX 01 54:08:72
TRACK 20 AUDIO
TITLE "Frenesi"
PERFORMER "Anita O'Day , "
FLAGS DCP
INDEX 01 57:45:09
TRACK 21 AUDIO
TITLE "Body And Soul"
PERFORMER "Anita O'Day , "
FLAGS DCP
INDEX 01 60:48:51
TRACK 22 AUDIO
TITLE "What's Your Story Morning Glory"
PERFORMER "Anita O'Day , "
FLAGS DCP
INDEX 01 64:10:51
TRACK 23 AUDIO
TITLE "Peanut Vendor"
PERFORMER "Anita O'Day , "
FLAGS DCP
INDEX 01 67:59:64
 
CD3 (01:13:12)
Anita O'Day Swings Cole Porter With Billy May - 1959
1 Just One Of Those Things 2:37
2 Love For Sale 2:41
3 You'd Be So Nice To Come Home 1:48
4 Easy To Love 2:01
5 I Get A Kick Out Of You 2:21
6 All Of You 1:40
7 Get Out Of Town 2:30
8 I've Got You Under My Skin 1:44
9 Night And Day 1:59
10 It's De-lovely 2:03
11 I Love You 1:56
12 What Is This Thing Called Love 2:29
13 You're The Top 2:24
14 My Heart Belongs To Daddy 2:51
15 Why Shouldn't I 3:05
16 From This Moment On 3:10
17 Love For Sale 3:34
18 Just One Of Those Things 2:37
Anita O'Day And Billy May Swing Rodgers And Hart - 1960
19 Johnny One Note 1:50
20 Little Girl Blue 2:58
21 Falling In Love With Love 1:24
22 Bewitched, Bothered And Bewildered 4:17
23 I Could Write A Book 2:05
24 Have You Met Miss Jones 1:50
25 Lover 1:58
26 It Never Entered My Mind 2:21
27 Ten Cents A Dance 2:13
28 I've Got Five Dollars 1:43
29 To Keep My Love Alive 3:09
30 Spring Is Here 2:42
 
Лог создания рипа
Exact Audio Copy V1.1 from 23. June 2015
EAC extraction logfile from 22. October 2017, 18:49
Anita O'Day , / Eight Classic Albums
Used drive : PLEXTOR DVDR PX-760A Adapter: 1 ID: 1
Read mode : Secure
Utilize accurate stream : Yes
Defeat audio cache : Yes
Make use of C2 pointers : No
Read offset correction : 30
Overread into Lead-In and Lead-Out : No
Fill up missing offset samples with silence : Yes
Delete leading and trailing silent blocks : No
Null samples used in CRC calculations : Yes
Used interface : Native Win32 interface for Win NT & 2000
Used output format : User Defined Encoder
Selected bitrate : 1024 kBit/s
Quality : High
Add ID3 tag : No
Command line compressor : C:\Program Files (x86)\FLAC\flac.exe
Additional command line options : -5 -V -T "ARTIST=%artist%" -T "TITLE=%title%" -T "ALBUM=%albumtitle%" -T "DATE=%year%" -T "TRACKNUMBER=%tracknr%" -T "GENRE=%genre%" -T "COMMENT=[oStereo.ru]" %source%
TOC of the extracted CD
Track | Start | Length | Start sector | End sector
---------------------------------------------------------
1 | 0:00.00 | 2:39.16 | 0 | 11940
2 | 2:39.16 | 2:43.59 | 11941 | 24224
3 | 5:23.00 | 1:50.43 | 24225 | 32517
4 | 7:13.43 | 2:03.29 | 32518 | 41771
5 | 9:16.72 | 2:23.39 | 41772 | 52535
6 | 11:40.36 | 1:42.04 | 52536 | 60189
7 | 13:22.40 | 2:32.01 | 60190 | 71590
8 | 15:54.41 | 1:46.29 | 71591 | 79569
9 | 17:40.70 | 2:01.17 | 79570 | 88661
10 | 19:42.12 | 2:05.65 | 88662 | 98101
11 | 21:48.02 | 1:58.38 | 98102 | 106989
12 | 23:46.40 | 2:31.43 | 106990 | 118357
13 | 26:18.08 | 2:26.04 | 118358 | 129311
14 | 28:44.12 | 2:53.48 | 129312 | 142334
15 | 31:37.60 | 3:07.33 | 142335 | 156392
16 | 34:45.18 | 3:12.44 | 156393 | 170836
17 | 37:57.62 | 3:36.62 | 170837 | 187098
18 | 41:34.49 | 2:39.35 | 187099 | 199058
19 | 44:14.09 | 1:52.02 | 199059 | 207460
20 | 46:06.11 | 3:00.31 | 207461 | 220991
21 | 49:06.42 | 1:26.72 | 220992 | 227513
22 | 50:33.39 | 4:19.01 | 227514 | 246939
23 | 54:52.40 | 2:07.62 | 246940 | 256526
24 | 57:00.27 | 1:52.46 | 256527 | 264972
25 | 58:52.73 | 2:00.61 | 264973 | 274033
26 | 60:53.59 | 2:23.37 | 274034 | 284795
27 | 63:17.21 | 2:15.36 | 284796 | 294956
28 | 65:32.57 | 1:45.59 | 294957 | 302890
29 | 67:18.41 | 3:11.21 | 302891 | 317236
30 | 70:29.62 | 2:42.32 | 317237 | 329418
Range status and errors
Selected range
Filename D:\Anita O'Day ‎– 8 Classic Albums - CD3 - RGJ.wav
Peak level 100.0 %
Extraction speed 1.2 X
Range quality 100.0 %
Copy CRC E0DE06FF
Copy OK
No errors occurred
AccurateRip summary
Track 1 accurately ripped (confidence 11) [657CBF96] (AR v2)
Track 2 accurately ripped (confidence 11) [9418614D] (AR v2)
Track 3 accurately ripped (confidence 11) [4CBED0C0] (AR v2)
Track 4 accurately ripped (confidence 11) [E9197666] (AR v2)
Track 5 accurately ripped (confidence 11) [AB0D520C] (AR v2)
Track 6 accurately ripped (confidence 11) [A7B5AD24] (AR v2)
Track 7 accurately ripped (confidence 11) [B09946FA] (AR v2)
Track 8 accurately ripped (confidence 11) [EDB8430E] (AR v2)
Track 9 accurately ripped (confidence 11) [157A1776] (AR v2)
Track 10 accurately ripped (confidence 11) [6E4AF222] (AR v2)
Track 11 accurately ripped (confidence 11) [C6E00AB0] (AR v2)
Track 12 accurately ripped (confidence 11) [CC47FC7D] (AR v2)
Track 13 accurately ripped (confidence 11) [F80109B9] (AR v2)
Track 14 accurately ripped (confidence 11) [740B7905] (AR v2)
Track 15 accurately ripped (confidence 11) [012C2DBB] (AR v2)
Track 16 accurately ripped (confidence 11) [4C5D50DB] (AR v2)
Track 17 accurately ripped (confidence 11) [20A2E502] (AR v2)
Track 18 accurately ripped (confidence 11) [3E304C66] (AR v2)
Track 19 accurately ripped (confidence 11) [EF2DAFC9] (AR v2)
Track 20 accurately ripped (confidence 11) [F25C7C68] (AR v2)
Track 21 accurately ripped (confidence 11) [7188C8BD] (AR v2)
Track 22 accurately ripped (confidence 11) [58F22AB3] (AR v2)
Track 23 accurately ripped (confidence 11) [9B639A11] (AR v2)
Track 24 accurately ripped (confidence 11) [18AE8F14] (AR v2)
Track 25 accurately ripped (confidence 11) [6CC41B17] (AR v2)
Track 26 accurately ripped (confidence 11) [24C37DB8] (AR v2)
Track 27 accurately ripped (confidence 11) [7AA15043] (AR v2)
Track 28 accurately ripped (confidence 11) [89C86442] (AR v2)
Track 29 accurately ripped (confidence 11) [40F6B987] (AR v2)
Track 30 accurately ripped (confidence 10) [06F50AE9] (AR v2)
All tracks accurately ripped
End of status report
==== Log checksum F5C8E292ADD5406C88ABFB0860BC0DF8DA2EA44BA8B91AF37C02226338B84F30 ====
 
Содержание индексной карты (.CUE)
REM DATE 2011
REM DISCID C611281E
REM COMMENT "ExactAudioCopy v1.1"
PERFORMER "Anita O'Day , "
TITLE "Eight Classic Albums"
FILE "Anita O'Day ‎– 8 Classic Albums - CD3 - RGJ.flac" WAVE
TRACK 01 AUDIO
TITLE "Just One Of Those Things"
PERFORMER "Anita O'Day , "
FLAGS DCP
INDEX 01 00:00:00
TRACK 02 AUDIO
TITLE "Love For Sale"
PERFORMER "Anita O'Day , "
FLAGS DCP
INDEX 01 02:39:16
TRACK 03 AUDIO
TITLE "You'd Be So Nice To Come Home"
PERFORMER "Anita O'Day , "
FLAGS DCP
INDEX 01 05:23:00
TRACK 04 AUDIO
TITLE "Easy To Love"
PERFORMER "Anita O'Day , "
FLAGS DCP
INDEX 01 07:13:43
TRACK 05 AUDIO
TITLE "I Get A Kick Out Of You"
PERFORMER "Anita O'Day , "
FLAGS DCP
INDEX 01 09:16:72
TRACK 06 AUDIO
TITLE "All Of You"
PERFORMER "Anita O'Day , "
FLAGS DCP
INDEX 01 11:40:36
TRACK 07 AUDIO
TITLE "Get Out Of Town"
PERFORMER "Anita O'Day , "
FLAGS DCP
INDEX 01 13:22:40
TRACK 08 AUDIO
TITLE "I've Got You Under My Skin"
PERFORMER "Anita O'Day , "
FLAGS DCP
INDEX 01 15:54:41
TRACK 09 AUDIO
TITLE "Night And Day"
PERFORMER "Anita O'Day , "
FLAGS DCP
INDEX 01 17:40:70
TRACK 10 AUDIO
TITLE "It's De-lovely"
PERFORMER "Anita O'Day , "
FLAGS DCP
INDEX 01 19:42:12
TRACK 11 AUDIO
TITLE "I Love You"
PERFORMER "Anita O'Day , "
FLAGS DCP
INDEX 01 21:48:02
TRACK 12 AUDIO
TITLE "What Is This Thing Called Love"
PERFORMER "Anita O'Day , "
FLAGS DCP
INDEX 01 23:46:40
TRACK 13 AUDIO
TITLE "You're The Top"
PERFORMER "Anita O'Day , "
FLAGS DCP
INDEX 01 26:18:08
TRACK 14 AUDIO
TITLE "My Heart Belongs To Daddy"
PERFORMER "Anita O'Day , "
FLAGS DCP
INDEX 01 28:44:12
TRACK 15 AUDIO
TITLE "Why Shouldn't I"
PERFORMER "Anita O'Day , "
FLAGS DCP
INDEX 01 31:37:60
TRACK 16 AUDIO
TITLE "From This Moment On"
PERFORMER "Anita O'Day , "
FLAGS DCP
INDEX 01 34:45:18
TRACK 17 AUDIO
TITLE "Love For Sale"
PERFORMER "Anita O'Day , "
FLAGS DCP
INDEX 01 37:57:62
TRACK 18 AUDIO
TITLE "Just One Of Those Things"
PERFORMER "Anita O'Day , "
FLAGS DCP
INDEX 01 41:34:49
TRACK 19 AUDIO
TITLE "Johnny One Note"
PERFORMER "Anita O'Day , "
FLAGS DCP
INDEX 01 44:14:09
TRACK 20 AUDIO
TITLE "Little Girl Blue"
PERFORMER "Anita O'Day , "
FLAGS DCP
INDEX 01 46:06:11
TRACK 21 AUDIO
TITLE "Falling In Love With Love"
PERFORMER "Anita O'Day , "
FLAGS DCP
INDEX 01 49:06:42
TRACK 22 AUDIO
TITLE "Bewitched, Bothered And Bewildered"
PERFORMER "Anita O'Day , "
FLAGS DCP
INDEX 01 50:33:39
TRACK 23 AUDIO
TITLE "I Could Write A Book"
PERFORMER "Anita O'Day , "
FLAGS DCP
INDEX 01 54:52:40
TRACK 24 AUDIO
TITLE "Have You Met Miss Jones"
PERFORMER "Anita O'Day , "
FLAGS DCP
INDEX 01 57:00:27
TRACK 25 AUDIO
TITLE "Lover"
PERFORMER "Anita O'Day , "
FLAGS DCP
INDEX 01 58:52:73
TRACK 26 AUDIO
TITLE "It Never Entered My Mind"
PERFORMER "Anita O'Day , "
FLAGS DCP
INDEX 01 60:53:59
TRACK 27 AUDIO
TITLE "Ten Cents A Dance"
PERFORMER "Anita O'Day , "
FLAGS DCP
INDEX 01 63:17:21
TRACK 28 AUDIO
TITLE "I've Got Five Dollars"
PERFORMER "Anita O'Day , "
FLAGS DCP
INDEX 01 65:32:57
TRACK 29 AUDIO
TITLE "To Keep My Love Alive"
PERFORMER "Anita O'Day , "
FLAGS DCP
INDEX 01 67:18:41
TRACK 30 AUDIO
TITLE "Spring Is Here"
PERFORMER "Anita O'Day , "
FLAGS DCP
INDEX 01 70:29:62
 
CD4 (01:17:44)
Waiter, Make Mine Blues - 1960
1 That Old Feeling 2:26
2 Angel Eyes 3:37
3 The Thrill Is Gone 2:12
4 Detour Ahead 4:22
5 Yesterdays 5:09
6 Waiter, Make Mine Blues 3:19
7 Whatever Happened To You 4:39
8 When Sunny Gets Blue 3:02
9 Stella By Starlight 2:47
10 Mad About The Boy 3:25
11 A Blues Serenade 2:53
12 Goodbye 3:35
Trav'lin Light - 1961
13 Trav'lin Light 3:32
14 The Moon Looks Down And Laughs 3:55
15 Don't Explain 3:08
16 Remember 2:35
17 Some Other Spring 2:24
18 What A Little Moonlight Can Do 2:26
19 Miss Brown To You 4:00
20 God Bless The Child 2:06
21 If The Moon Turns Green 2:52
22 I Hear Music 2:12
23 Lover, Come Back To Me 2:48
24 Crazy He Calls Me 3:23
 
Лог создания рипа
Exact Audio Copy V1.1 from 23. June 2015
EAC extraction logfile from 22. October 2017, 20:12
Anita O'Day , / Eight Classic Albums
Used drive : PLEXTOR DVDR PX-760A Adapter: 1 ID: 1
Read mode : Secure
Utilize accurate stream : Yes
Defeat audio cache : Yes
Make use of C2 pointers : No
Read offset correction : 30
Overread into Lead-In and Lead-Out : No
Fill up missing offset samples with silence : Yes
Delete leading and trailing silent blocks : No
Null samples used in CRC calculations : Yes
Used interface : Native Win32 interface for Win NT & 2000
Used output format : User Defined Encoder
Selected bitrate : 1024 kBit/s
Quality : High
Add ID3 tag : No
Command line compressor : C:\Program Files (x86)\FLAC\flac.exe
Additional command line options : -5 -V -T "ARTIST=%artist%" -T "TITLE=%title%" -T "ALBUM=%albumtitle%" -T "DATE=%year%" -T "TRACKNUMBER=%tracknr%" -T "GENRE=%genre%" -T "COMMENT=[oStereo.ru]" %source%
TOC of the extracted CD
Track | Start | Length | Start sector | End sector
---------------------------------------------------------
1 | 0:00.00 | 2:28.01 | 0 | 11100
2 | 2:28.01 | 3:39.04 | 11101 | 27529
3 | 6:07.05 | 2:14.04 | 27530 | 37583
4 | 8:21.09 | 4:24.66 | 37584 | 57449
5 | 12:46.00 | 5:11.49 | 57450 | 80823
6 | 17:57.49 | 3:21.58 | 80824 | 95956
7 | 21:19.32 | 4:41.45 | 95957 | 117076
8 | 26:01.02 | 3:04.23 | 117077 | 130899
9 | 29:05.25 | 2:49.02 | 130900 | 143576
10 | 31:54.27 | 3:27.12 | 143577 | 159113
11 | 35:21.39 | 2:55.66 | 159114 | 172304
12 | 38:17.30 | 3:37.56 | 172305 | 188635
13 | 41:55.11 | 3:34.41 | 188636 | 204726
14 | 45:29.52 | 3:57.42 | 204727 | 222543
15 | 49:27.19 | 3:10.50 | 222544 | 236843
16 | 52:37.69 | 2:37.73 | 236844 | 248691
17 | 55:15.67 | 2:26.34 | 248692 | 259675
18 | 57:42.26 | 2:28.56 | 259676 | 270831
19 | 60:11.07 | 4:02.12 | 270832 | 288993
20 | 64:13.19 | 2:08.17 | 288994 | 298610
21 | 66:21.36 | 2:54.68 | 298611 | 311728
22 | 69:16.29 | 2:14.41 | 311729 | 321819
23 | 71:30.70 | 2:50.17 | 321820 | 334586
24 | 74:21.12 | 3:23.07 | 334587 | 349818
Range status and errors
Selected range
Filename D:\Anita O'Day ‎– 8 Classic Albums - CD4 - RGJ.wav
Peak level 100.0 %
Extraction speed 1.2 X
Range quality 99.9 %
Copy CRC 5572B5CF
Copy OK
No errors occurred
AccurateRip summary
Track 1 accurately ripped (confidence 2) [5E1C79FC] (AR v2)
Track 2 accurately ripped (confidence 2) [0AB7EB57] (AR v2)
Track 3 accurately ripped (confidence 2) [01BEAA63] (AR v2)
Track 4 accurately ripped (confidence 2) [D2FDB49A] (AR v2)
Track 5 accurately ripped (confidence 2) [1C8766DD] (AR v2)
Track 6 accurately ripped (confidence 2) [3741B3EB] (AR v2)
Track 7 accurately ripped (confidence 2) [D48EEF3F] (AR v2)
Track 8 accurately ripped (confidence 2) [E170BF98] (AR v2)
Track 9 accurately ripped (confidence 2) [B05DB98C] (AR v2)
Track 10 accurately ripped (confidence 2) [F179E745] (AR v2)
Track 11 accurately ripped (confidence 2) [2DFCE9F4] (AR v2)
Track 12 accurately ripped (confidence 2) [67A9079C] (AR v2)
Track 13 accurately ripped (confidence 2) [E65B4C4B] (AR v2)
Track 14 accurately ripped (confidence 2) [44269B12] (AR v2)
Track 15 accurately ripped (confidence 2) [9896F278] (AR v2)
Track 16 accurately ripped (confidence 2) [D0EC226C] (AR v2)
Track 17 accurately ripped (confidence 2) [BCC525A1] (AR v2)
Track 18 accurately ripped (confidence 2) [E037F8E2] (AR v2)
Track 19 accurately ripped (confidence 2) [6CFEE55B] (AR v2)
Track 20 accurately ripped (confidence 2) [87E50C11] (AR v2)
Track 21 accurately ripped (confidence 2) [4A7BF87E] (AR v2)
Track 22 accurately ripped (confidence 2) [DF0F84B3] (AR v2)
Track 23 accurately ripped (confidence 2) [60270FB6] (AR v2)
Track 24 accurately ripped (confidence 2) [74A2435E] (AR v2)
All tracks accurately ripped
End of status report
==== Log checksum AB6C6DAE159D353F0A7DE91322AAEE3E0C2C503F1456FFB74662F0A9193DAD67 ====
 
Содержание индексной карты (.CUE)
REM DATE 2011
REM DISCID 7A123818
REM COMMENT "ExactAudioCopy v1.1"
PERFORMER "Anita O'Day , "
TITLE "Eight Classic Albums"
FILE "Anita O'Day ‎– 8 Classic Albums - CD4 - RGJ.flac" WAVE
TRACK 01 AUDIO
TITLE "That Old Feeling"
PERFORMER "Anita O'Day , "
FLAGS DCP
INDEX 01 00:00:00
TRACK 02 AUDIO
TITLE "Angel Eyes"
PERFORMER "Anita O'Day , "
FLAGS DCP
INDEX 01 02:28:01
TRACK 03 AUDIO
TITLE "The Thrill Is Gone"
PERFORMER "Anita O'Day , "
FLAGS DCP
INDEX 01 06:07:05
TRACK 04 AUDIO
TITLE "Detour Ahead"
PERFORMER "Anita O'Day , "
FLAGS DCP
INDEX 01 08:21:09
TRACK 05 AUDIO
TITLE "Yesterdays"
PERFORMER "Anita O'Day , "
FLAGS DCP
INDEX 01 12:46:00
TRACK 06 AUDIO
TITLE "Waiter, Make Mine Blues"
PERFORMER "Anita O'Day , "
FLAGS DCP
INDEX 01 17:57:49
TRACK 07 AUDIO
TITLE "Whatever Happened To You"
PERFORMER "Anita O'Day , "
FLAGS DCP
INDEX 01 21:19:32
TRACK 08 AUDIO
TITLE "When Sunny Gets Blue"
PERFORMER "Anita O'Day , "
FLAGS DCP
INDEX 01 26:01:02
TRACK 09 AUDIO
TITLE "Stella By Starlight"
PERFORMER "Anita O'Day , "
FLAGS DCP
INDEX 01 29:05:25
TRACK 10 AUDIO
TITLE "Mad About The Boy"
PERFORMER "Anita O'Day , "
FLAGS DCP
INDEX 01 31:54:27
TRACK 11 AUDIO
TITLE "A Blues Serenade"
PERFORMER "Anita O'Day , "
FLAGS DCP
INDEX 01 35:21:39
TRACK 12 AUDIO
TITLE "Goodbye"
PERFORMER "Anita O'Day , "
FLAGS DCP
INDEX 01 38:17:30
TRACK 13 AUDIO
TITLE "Trav'lin Light"
PERFORMER "Anita O'Day , "
FLAGS DCP
INDEX 01 41:55:11
TRACK 14 AUDIO
TITLE "The Moon Looks Down And Laughs"
PERFORMER "Anita O'Day , "
FLAGS DCP
INDEX 01 45:29:52
TRACK 15 AUDIO
TITLE "Don't Explain"
PERFORMER "Anita O'Day , "
FLAGS DCP
INDEX 01 49:27:19
TRACK 16 AUDIO
TITLE "Remember"
PERFORMER "Anita O'Day , "
FLAGS DCP
INDEX 01 52:37:69
TRACK 17 AUDIO
TITLE "Some Other Spring"
PERFORMER "Anita O'Day , "
FLAGS DCP
INDEX 01 55:15:67
TRACK 18 AUDIO
TITLE "What A Little Moonlight Can Do"
PERFORMER "Anita O'Day , "
FLAGS DCP
INDEX 01 57:42:26
TRACK 19 AUDIO
TITLE "Miss Brown To You"
PERFORMER "Anita O'Day , "
FLAGS DCP
INDEX 01 60:11:07
TRACK 20 AUDIO
TITLE "God Bless The Child"
PERFORMER "Anita O'Day , "
FLAGS DCP
INDEX 01 64:13:19
TRACK 21 AUDIO
TITLE "If The Moon Turns Green"
PERFORMER "Anita O'Day , "
FLAGS DCP
INDEX 01 66:21:36
TRACK 22 AUDIO
TITLE "I Hear Music"
PERFORMER "Anita O'Day , "
FLAGS DCP
INDEX 01 69:16:29
TRACK 23 AUDIO
TITLE "Lover, Come Back To Me"
PERFORMER "Anita O'Day , "
FLAGS DCP
INDEX 01 71:30:70
TRACK 24 AUDIO
TITLE "Crazy He Calls Me"
PERFORMER "Anita O'Day , "
FLAGS DCP
INDEX 01 74:21:12
Скачивание доступно после регистрации!!
Приватный:
Нет (DHT включён)
Размер:
1.33 Гб (1,425,232,072 байт) » файлов: 24
Участники:
0 раздают, 0 качают (0 участников всего)
Внешние участники:
8 раздают, 2 качают (10 участников всего) [ Обновить ]
07:55
12
Нет комментариев. Ваш будет первым!