Поиск

[DSD][OF] Leif Strands Kammarkör (feat. Arne Domnerus & Georg Riedel) - Sorgen och Glädjen (Joy & Sorrow) - 1971/2016 (Jazz, Crossover Jazz, Folk, World)

[DSD][OF] Leif Strands Kammarkör (feat. Arne Domnerus & Georg Riedel) - Sorgen och Glädjen (Joy & Sorrow) - 1971/2016 (Jazz, Crossover Jazz, Folk, World)
Издатель (лейбл):
Треклист:
Leif Strands Kammarkör (feat. Arne Domnerus & Georg Riedel) / Sorgen och Glädjen (Joy & Sorrow)
Формат записи/Источник записи: [DSD][OF]
Наличие водяных знаков: Нет
Год издания/переиздания диска: 1971/2016
Жанр: Jazz, Crossover Jazz, Folk, World
Издатель (лейбл): 2xHD - Naxos
Продолжительность: 00:43:37
Наличие сканов в содержимом раздачи: Буклет PDF
Треклист:
01. Sorgen och glädjen (arr. L. Strand for choir)
02. Världens frälsare, kom här (arr. L. Strand for choir)
03. Lagd på strå (arr. A. Frostenson for choir)
04. Kommen I herdar (arr. L. Strand for choir)
05. Vallåtar från Rättvik
06. Se, vi gå upp till Jerusalem (arr. L. Strand for choir)
07. Min själ, du måste glömma (arr. L. Strand for choir)
08. Krist är uppstånden (arr. L. Strand for choir)
09. Dig Helge Ande bedja vi (arr. L. Strand for choir)
10. Veni, Sancte Spiritus (arr. L. Strand for choir)
11. Som fågelen vid ljusan dag (arr. L. Strand)
12. En herrdag i höjden (arr. L. Strand)
13. O, hur saligt att få vandra (arr. L. Strand for choir)
Контейнер: DSF (*.dsf)
Тип рипа: tracks
Разрядность: 128(5,6 MHz/1 Bit)
Формат: DSD
Количество каналов: 2.0
 
Лог проверки качества
foobar2000 1.3.17 / Замер динамического диапазона (DR) 1.1.1
Дата отчёта:  2017-12-21 18:21:06
--------------------------------------------------------------------------------
Анализ:   Arne Domnérus, Rune Gustafsson, Bengt Hallberg, Egil Johansen, Georg Riedel, Leif Strands Kammarkor / Sorgen och Glädjen
--------------------------------------------------------------------------------
DR         Пики         RMS           Продолжительность трека
--------------------------------------------------------------------------------
DR14      -9.56 дБ   -27.06 дБ      5:08 01-Sorgen och glädjen (arr. L. Strand for choir)
DR15      -6.39 дБ   -26.42 дБ      2:36 02-Världens frälsare, kom här (arr. L. Strand for choir)
DR18      -8.35 дБ   -30.18 дБ      1:37 03-Lagd på strå (arr. A. Frostenson for choir)
DR13      -9.62 дБ   -27.81 дБ      2:30 04-Kommen I herdar (arr. L. Strand for choir)
DR13      -5.99 дБ   -25.19 дБ      2:59 05-Vallåtar från Rättvik
DR12     -11.44 дБ   -29.53 дБ      2:45 06-Se, vi gå upp till Jerusalem (arr. L. Strand for choir)
DR13     -14.75 дБ   -33.57 дБ      4:24 07-Min själ, du måste glömma (arr. L. Strand for choir)
DR14     -15.35 дБ   -33.61 дБ      2:20 08-Krist är uppstånden (arr. L. Strand for choir)
DR12      -9.13 дБ   -26.64 дБ      5:22 09-Dig Helge Ande bedja vi (arr. L. Strand for choir)
DR15      -6.12 дБ   -28.06 дБ      4:01 10-Veni, Sancte Spiritus (arr. L. Strand for choir)
DR12     -14.97 дБ   -31.76 дБ      3:10 11-Som fågelen vid ljusan dag (arr. L. Strand)
DR15     -14.77 дБ   -33.77 дБ      2:19 12-En herrdag i höjden (arr. L. Strand)
DR14     -11.92 дБ   -30.45 дБ      4:25 13-O, hur saligt att få vandra (arr. L. Strand for choir)
--------------------------------------------------------------------------------
Количество треков: 13
Реальные значения DR: DR14
Частота:   5644800 Гц / Частота PCM: 352800 Гц
Каналов:   2
Разрядность:   1
Битрейт:   11290 кбит/с
Кодек:   DSD128
================================================================================
 
 
Скриншот спектра частот
 
Источник (релизер): nativeDSDmusic
 
 
Состав
Alto Saxophone – Arne Domnérus
Bass – Georg Riedel
Guitar – Rune Gustafsson
Percussion – Egil Johansen
Piano – Bengt Hallberg
Conductor, Arranger – Leif Strand
Alto Vocals – Birgitta Bergqvist, Ieva Zalitis, Ingrid Haking,
Karin Öhman, Lena Gustavsson, Margareta Malmnäs
Bass Vocals – Björn Eriksson, Erik Rentzhog, Hans-Christer Eriksson,
Ingar Winqvist, Per-Arne Norman, Peter Engström,
Svenerik Blomgren, Torgny Carlsson, Örjan Svane
Soprano Vocals – Anna-Lena Hallgren, Berit Norberg, Bodil Hellebro,
Eva Strand, Eva-Lis Hammarström, Inger Örback, Lena Nordin, Mette Franzén
Tenor Vocals – Christer Lexing, Kjell Hagegård, Lars Örback, Sven-Olof Carlsson
 
 
Об альбоме (сборнике)
Is this the line between folk and spiritual song? Between hymn to Christ's bride and the earthly love song? The border is not straight and clear, but on both sides lies a treasure of music and lyrics that we must have to stay alive - in our day and future , as an inheritance . . . Leif Strand and the musicians on this record, offer a kind of continuation of the sorrow and the joy.
Leif Strand Chamber Choir began in 1965; the first concert together with jazz musicians was held at Hönsten 1967 with, among others, Jan Johansson, Arne Domnérus, Rune Gustafsson, Georg Riedel. Since the choir - in connection with Arne Domnérus sextet - made a couple hundred concerts, numerous radio and television appearances and five published LPs.
On this album, the Leif Stand Choir from Sweden join with Jazz greats Georg Riedel, Arne Domnérus, Egil Johansen and Bengt Hallberg - best known for their work on the classic Jazz At The Pawnshop. Joy and Sorrow features the choir and musicians performing traditional, chorale and spiritual music.
04:59
758
Нет комментариев. Ваш будет первым!