Поиск

[DSD][OF] Jaco Pastorius - Truth, Liberty & Soul - 2017 (Jazz)

[DSD][OF] Jaco Pastorius - Truth, Liberty & Soul - 2017 (Jazz)
Треклист:
Jaco Pastorius - Truth, Liberty & Soul
Формат записи/Источник записи: [DSD][OF]
Наличие водяных знаков: Нет
Год издания/переиздания диска: 2017
Жанр: Jazz
Издатель (лейбл): 2xHD
Продолжительность: 02:11:05
Наличие сканов в содержимом раздачи: Буклет PDF
Источник (релизер): HDtracks
Треклист:
01. Invitation
02. Soul Intro/The Chicken
03. Donna Lee
04. Three Views Of A Secret
05. Liberty City
06. Sophisticated Lady
07. Bluesette
08. I Shot The Sheriff
09. Okonkole’ Y Trompa
10. Reza/Giant Steps (Medley)
11. Mr. Fonebone
12. Bass And Drum Improvisation
13. Twins
14. Fannie Mae
Контейнер: DSF (*.dsf)
Тип рипа: tracks
Разрядность: 128(5,6 MHz/1 Bit)
Формат: DSD
Количество каналов: 2.0
 
Лог проверки качества
foobar2000 1.3.14 / Dynamic Range Meter 1.1.1
log date: 2017-05-29 17:44:02
--------------------------------------------------------------------------------
Analyzed: Jaco Pastorius / Truth, Liberty & Soul
--------------------------------------------------------------------------------
DR Peak RMS Duration Track
--------------------------------------------------------------------------------
DR10 -6.79 dB -19.32 dB 13:04 01-Invitation
DR11 -6.85 dB -19.95 dB 9:02 02-Soul Intro - The Chicken
DR11 -6.68 dB -20.26 dB 13:16 03-Donna Lee
DR9 -7.11 dB -19.02 dB 6:36 04-Three Views of a Secret
DR10 -7.51 dB -20.00 dB 10:04 05-Liberty City
DR12 -7.27 dB -23.72 dB 7:46 06-Sophisticated Lady
DR10 -8.01 dB -20.45 dB 5:37 07-Bluesette
DR11 -7.53 dB -20.54 dB 6:51 08-I Shot the Sheriff
DR12 -6.81 dB -22.65 dB 15:00 09-Okonkole' y trompa
DR10 -6.69 dB -19.37 dB 10:32 10-Reza - Giant Steps
DR10 -7.41 dB -19.79 dB 10:28 11-Mr. Fonebone
DR11 -7.28 dB -22.30 dB 14:07 12-Bass and Drum Improvisation
DR10 -7.77 dB -20.84 dB 2:51 13-Twins
DR10 -7.11 dB -19.66 dB 5:51 14-Fannie Mae
--------------------------------------------------------------------------------
Number of tracks: 14
Official DR value: DR10
Samplerate: 5644800 Hz / PCM Samplerate: 88200 Hz
Channels: 2
Bits per sample: 1
Bitrate: 11290 kbps
Codec: DSD128
================================================================================
Приватный:
Нет (DHT включён)
Размер:
10.36 Гб (11,127,245,881 байт) » файлов: 17
Участники:
0 раздают, 0 качают (0 участников всего)
Внешние участники:
7 раздают, 2 качают (9 участников всего) [ Обновить ]
For power users only: no seeders - write to support@pro-jazz.com. Для power user: нет сидеров - пишите на support@pro-jazz.com.
19:31
167
Нет комментариев. Ваш будет первым!