Вы используете незарегистрированную версию компонента "Вкладки"!

Поиск

[DSD][OF] Anima - Sacred Alliance - 2014 (New Age, Meditative)

[DSD][OF] Anima - Sacred Alliance - 2014 (New Age, Meditative)
Стили:
Треклист:
Anima / Sacred Alliance
Формат записи/Источник записи: [DSD][OF]
Наличие водяных знаков: Нет
Год издания: 2014
Жанр: New Age, Meditative
Издатель(лейбл): Anima Sound Productions
Продолжительность: 1:14:23
Наличие сканов в содержимом раздачи: Нет
Источник (релизер): Animamusic
Треклист:
01. Great Mother's Dominion (4:49)
02. Surrender (9:25)
03. Sewa (11:34)
04. Sacred Lands (4:52)
05. Offering (5:19)
06. Camino De Pedro (8:57)
07. Gonawindua (8:28)
08. Kogi Transmission (Album Version) (8:49)
09. Ancestral Fathers of the Stars (12:15)
Контейнер: DSF (*.dsf)
Тип рипа: tracks
Разрядность: 64(2,8 MHz/1 Bit)
Формат: DSD
Количество каналов: 2.0
 
Лог проверки качества
foobar2000 1.3.9 / Замер динамического диапазона (DR) 1.1.1
Дата отчёта: 2016-03-03 21:04:56
--------------------------------------------------------------------------------
Анализ: Anima / Sacred Alliance
--------------------------------------------------------------------------------
DR Пики RMS Продолжительность трека
--------------------------------------------------------------------------------
DR10 0.00 дБ -13.72 дБ 4:49 01-Great Mother's Dominion
DR10 0.00 дБ -11.79 дБ 9:25 02-Surrender
DR11 0.00 дБ -13.91 дБ 11:34 03-Sewa
DR11 0.00 дБ -13.36 дБ 4:52 04-Sacred Lands
DR10 0.00 дБ -12.35 дБ 5:19 05-Offering
DR15 0.00 дБ -18.13 дБ 8:57 06-Camino de Pedro
DR11 0.00 дБ -13.05 дБ 8:28 07-Gonawindua
DR13 0.00 дБ -15.06 дБ 8:49 08-Kogi Transmission (Album Version)
DR11 0.00 дБ -13.65 дБ 12:15 09-Ancestral Fathers of the Stars
--------------------------------------------------------------------------------
Количество треков: 9
Реальные значения DR: DR11
Частота: 2822400 Гц / Частота PCM: 176400 Гц
Каналов: 2
Разрядность: 24
Битрейт: 5645 кбит/с
Кодек: DSD64
================================================================================
Any questions -> support@pro-jazz.com. По всем вопросам пишите -> support@pro-jazz.com
02:24
250
Нет комментариев. Ваш будет первым!