Поиск

(Downtempo/Jazz) Misled Children (Clutchy Hopkins) - The Misled Children Meet Odean Pope - 2008, FLAC (tracks+.cue), lossless

Треклист:
Misled Children - The Misled Children Meet Odean Pope
Жанр: Downtempo/Jazz
Год выпуска диска: 2008
Производитель диска: US
Аудио кодек: FLAC
Тип рипа: tracks+.cue
Битрейт аудио: lossless
Продолжительность: 36:28
Трэклист:
01 - Dadadun
02 - Four Track
03 - Foregone
04 - Grimey
05 - Laugh Track
06 - Misled Kid
07 - Odean Hopkins
08 - Ruff Seven
09 - Bananas Foster
10 - Uno
Доп. информация: Enjoy...
 
Log
X Lossless Decoder version 20091127 (114.2)
XLD extraction logfile from 2009-11-27 20:10:43 +0200
Misled Children / The Misled Children Meet Odean Pope
Used drive : MATSHITA DVD-R UJ-875 (revision DA09)
Use cdparanoia mode : YES (CDParanoia III 10.2 engine)
Disable audio cache : OK for the drive with cache less than 2750KB
Make use of C2 pointers : NO
Read offset correction : 102
Max retry count : 100
TOC of the extracted CD
Track | Start | Length | Start sector | End sector
---------------------------------------------------------
1 | 00:00:00 | 04:16:62 | 0 | 19261
2 | 04:16:62 | 03:45:69 | 19262 | 36205
3 | 08:02:56 | 03:53:68 | 36206 | 53748
4 | 11:56:49 | 03:21:71 | 53749 | 68894
5 | 15:18:45 | 04:04:72 | 68895 | 87266
6 | 19:23:42 | 03:59:16 | 87267 | 105207
7 | 23:22:58 | 02:11:08 | 105208 | 115040
8 | 25:33:66 | 03:55:65 | 115041 | 132730
9 | 29:29:56 | 04:08:18 | 132731 | 151348
10 | 33:37:74 | 02:50:53 | 151349 | 164151
All Tracks
Album gain : -4.32 dB
Peak : 1.000000
Track 01
Filename : /Users/sigchill/Music/XLD/Misled Children/2008 - The Misled Children Meet Odean Pope/01 - Dadadun.wav
Track gain : -2.19 dB
Peak : 1.000000
CRC32 hash (test run) : 2E2F1D85
CRC32 hash : 2E2F1D85
CRC32 hash (skip zero) : 6E43DADB
AccurateRip signature : 6E7D3988
->Track not present in AccurateRip database.
Statistics
Read error : 0
Skipped (treated as error) : 0
Edge jitter error (maybe fixed) : 0
Atom jitter error (maybe fixed) : 0
Drift error (maybe fixed) : 0
Dropped bytes error (maybe fixed) : 0
Duplicated bytes error (maybe fixed) : 0
Inconsistency in error sectors : 0
Track 02
Filename : /Users/sigchill/Music/XLD/Misled Children/2008 - The Misled Children Meet Odean Pope/02 - Four Track.wav
Track gain : -4.07 dB
Peak : 1.000000
CRC32 hash (test run) : E16311DC
CRC32 hash : E16311DC
CRC32 hash (skip zero) : BD7E150C
AccurateRip signature : 07B4BE6A
->Track not present in AccurateRip database.
Statistics
Read error : 0
Skipped (treated as error) : 0
Edge jitter error (maybe fixed) : 0
Atom jitter error (maybe fixed) : 0
Drift error (maybe fixed) : 0
Dropped bytes error (maybe fixed) : 0
Duplicated bytes error (maybe fixed) : 0
Inconsistency in error sectors : 0
Track 03
Filename : /Users/sigchill/Music/XLD/Misled Children/2008 - The Misled Children Meet Odean Pope/03 - Foregone.wav
Track gain : -6.47 dB
Peak : 1.000000
CRC32 hash (test run) : 5EACF9CC
CRC32 hash : 5EACF9CC
CRC32 hash (skip zero) : 7DDDC001
AccurateRip signature : FC958C96
->Track not present in AccurateRip database.
Statistics
Read error : 0
Skipped (treated as error) : 0
Edge jitter error (maybe fixed) : 0
Atom jitter error (maybe fixed) : 0
Drift error (maybe fixed) : 0
Dropped bytes error (maybe fixed) : 0
Duplicated bytes error (maybe fixed) : 0
Inconsistency in error sectors : 0
Track 04
Filename : /Users/sigchill/Music/XLD/Misled Children/2008 - The Misled Children Meet Odean Pope/04 - Grimey.wav
Track gain : -0.27 dB
Peak : 0.999756
CRC32 hash (test run) : 359574FA
CRC32 hash : 359574FA
CRC32 hash (skip zero) : E34783A9
AccurateRip signature : C00C6F5C
->Track not present in AccurateRip database.
Statistics
Read error : 0
Skipped (treated as error) : 0
Edge jitter error (maybe fixed) : 0
Atom jitter error (maybe fixed) : 0
Drift error (maybe fixed) : 0
Dropped bytes error (maybe fixed) : 0
Duplicated bytes error (maybe fixed) : 0
Inconsistency in error sectors : 0
Track 05
Filename : /Users/sigchill/Music/XLD/Misled Children/2008 - The Misled Children Meet Odean Pope/05 - Laugh Track.wav
Track gain : -1.91 dB
Peak : 1.000000
CRC32 hash (test run) : 1649662D
CRC32 hash : 1649662D
CRC32 hash (skip zero) : 83303972
AccurateRip signature : 9803E7DD
->Track not present in AccurateRip database.
Statistics
Read error : 0
Skipped (treated as error) : 0
Edge jitter error (maybe fixed) : 0
Atom jitter error (maybe fixed) : 0
Drift error (maybe fixed) : 0
Dropped bytes error (maybe fixed) : 0
Duplicated bytes error (maybe fixed) : 0
Inconsistency in error sectors : 0
Track 06
Filename : /Users/sigchill/Music/XLD/Misled Children/2008 - The Misled Children Meet Odean Pope/06 - Misled Kid.wav
Track gain : -5.15 dB
Peak : 1.000000
CRC32 hash (test run) : A6B2F5FA
CRC32 hash : A6B2F5FA
CRC32 hash (skip zero) : BF6BC21B
AccurateRip signature : 3E6E227C
->Track not present in AccurateRip database.
Statistics
Read error : 0
Skipped (treated as error) : 0
Edge jitter error (maybe fixed) : 0
Atom jitter error (maybe fixed) : 0
Drift error (maybe fixed) : 0
Dropped bytes error (maybe fixed) : 0
Duplicated bytes error (maybe fixed) : 0
Inconsistency in error sectors : 0
Track 07
Filename : /Users/sigchill/Music/XLD/Misled Children/2008 - The Misled Children Meet Odean Pope/07 - Odean Hopkins.wav
Track gain : -2.50 dB
Peak : 1.000000
CRC32 hash (test run) : 784487A8
CRC32 hash : 784487A8
CRC32 hash (skip zero) : 29FB79F4
AccurateRip signature : 319023B8
->Track not present in AccurateRip database.
Statistics
Read error : 0
Skipped (treated as error) : 0
Edge jitter error (maybe fixed) : 2
Atom jitter error (maybe fixed) : 2
Drift error (maybe fixed) : 0
Dropped bytes error (maybe fixed) : 0
Duplicated bytes error (maybe fixed) : 0
Inconsistency in error sectors : 0
Track 08
Filename : /Users/sigchill/Music/XLD/Misled Children/2008 - The Misled Children Meet Odean Pope/08 - Ruff Seven.wav
Track gain : 0.66 dB
Peak : 0.967712
CRC32 hash (test run) : 713328E9
CRC32 hash : 713328E9
CRC32 hash (skip zero) : 130A77B2
AccurateRip signature : F5B7D15F
->Track not present in AccurateRip database.
Statistics
Read error : 0
Skipped (treated as error) : 0
Edge jitter error (maybe fixed) : 0
Atom jitter error (maybe fixed) : 0
Drift error (maybe fixed) : 0
Dropped bytes error (maybe fixed) : 0
Duplicated bytes error (maybe fixed) : 0
Inconsistency in error sectors : 0
Track 09
Filename : /Users/sigchill/Music/XLD/Misled Children/2008 - The Misled Children Meet Odean Pope/09 - Bananas Foster.wav
Track gain : -2.10 dB
Peak : 1.000000
CRC32 hash (test run) : E7DB5122
CRC32 hash : E7DB5122
CRC32 hash (skip zero) : 1FFD2CA7
AccurateRip signature : 12C73BDA
->Track not present in AccurateRip database.
Statistics
Read error : 0
Skipped (treated as error) : 0
Edge jitter error (maybe fixed) : 0
Atom jitter error (maybe fixed) : 0
Drift error (maybe fixed) : 0
Dropped bytes error (maybe fixed) : 0
Duplicated bytes error (maybe fixed) : 0
Inconsistency in error sectors : 0
Track 10
Filename : /Users/sigchill/Music/XLD/Misled Children/2008 - The Misled Children Meet Odean Pope/10 - Uno.wav
Track gain : -6.92 dB
Peak : 1.000000
CRC32 hash (test run) : 31F49818
CRC32 hash : 31F49818
CRC32 hash (skip zero) : FEDE3F30
AccurateRip signature : C2A05BBB
->Track not present in AccurateRip database.
Statistics
Read error : 0
Skipped (treated as error) : 0
Edge jitter error (maybe fixed) : 0
Atom jitter error (maybe fixed) : 0
Drift error (maybe fixed) : 0
Dropped bytes error (maybe fixed) : 0
Duplicated bytes error (maybe fixed) : 0
Inconsistency in error sectors : 0
No errors occurred
End of status report
Download available for power users only.
12:43
399
Нет комментариев. Ваш будет первым!