Поиск

(Dixieland, New Orleans Jazz Revival) Pete Fountain - Cheek to Cheek - 1993, FLAC (tracks+.cue), lossless

(Dixieland, New Orleans Jazz Revival) Pete Fountain - Cheek to Cheek - 1993, FLAC (tracks+.cue), lossless
Треклист:
Pete Fountain - Cheek to Cheek
Жанр: Dixieland, New Orleans Jazz Revival
Страна-производитель диска: США
Год издания: 1993
Издатель (лейбл): Ranwood Records
Номер по каталогу: RDS 1009
Аудиокодек: FLAC (*.flac)
Тип рипа: tracks+.cue
Битрейт аудио: lossless
Продолжительность: 40:03
Источник (релизер): zootallure (what)
Наличие сканов в содержимом раздачи: да
Треклист:
01. Cheek to Cheek (Berlin) - 3:02
02. Smoke Rings (Washington-Gifford) - 4:15
03. Girl of My Dreams (Clapp) - 2:36
04. Sweet and Lovely (Arnheim-Tobias-Lemare) - 3:19
05. You Must Have Been a Beautiful Baby (Mercer-Warren) - 2:52
06. Unforgettable (Gordon) - 4:05
07. Paradise (Brown-Clifford) - 4:31
08. 'Deed I Do (Hirsch-Rose) - 4:03
09. Rose Room (Williams-Hickman) - 3:17
10. I Let a Song Go Out of My Heart (Mills-Nemo-Redmond-Ellington) - 2:28
11. I Can't Believe That You're Still in Love with Me (McHugh-Gaskill) - 2:39
12. Nobody's Darlin' (Davis) - 2:56
Состав:
Pete Fountain - clarinet
Owen Bradley - piano
Buddy Harman - drums
Jim Ferguson - bass
Gary L. Miller, Chris McDonald, Chris Dunn, Tom Lundberg, Barry Green - trombones
Ernie Collins - bass trombone
Recorded at Bradley's Barn, Mt. Juliet, TN.
 
Лог создания рипа
Exact Audio Copy V1.0 beta 3 from 29. August 2011
EAC extraction logfile from 7. September 2013, 16:53
Pete Fountain / Cheek to Cheek
Used drive : hp DVD A DH16ABSH Adapter: 0 ID: 1
Read mode : Secure
Utilize accurate stream : Yes
Defeat audio cache : Yes
Make use of C2 pointers : No
Read offset correction : 6
Overread into Lead-In and Lead-Out : No
Fill up missing offset samples with silence : Yes
Delete leading and trailing silent blocks : No
Null samples used in CRC calculations : Yes
Used interface : Native Win32 interface for Win NT & 2000
Gap handling : Appended to previous track
Used output format : User Defined Encoder
Selected bitrate : 1024 kBit/s
Quality : High
Add ID3 tag : Yes
Command line compressor : C:\Program Files (x86)\Exact Audio Copy\Flac\flac.exe
Additional command line options : -8 -V -T "ARTIST=%artist%" -T "TITLE=%title%" -T "ALBUM=%albumtitle%" -T "DATE=%year%" -T "TRACKNUMBER=%tracknr%" -T "GENRE=%genre%" -T "PERFORMER=%albuminterpret%" -T "COMPOSER=%composer%" %haslyrics%--tag-from-file=LYRICS="%lyricsfile%"%haslyrics% -T "ALBUMARTIST=%albumartist%" -T "DISCNUMBER=%cdnumber%" -T "TOTALDISCS=%totalcds%" -T "TOTALTRACKS=%numtracks%" -T "COMMENT=%comment%" %source% -o %dest%
TOC of the extracted CD
Track | Start | Length | Start sector | End sector
---------------------------------------------------------
1 | 0:00.00 | 3:01.45 | 0 | 13619
2 | 3:01.45 | 4:14.53 | 13620 | 32722
3 | 7:16.23 | 2:35.50 | 32723 | 44397
4 | 9:51.73 | 3:19.10 | 44398 | 59332
5 | 13:11.08 | 2:51.52 | 59333 | 72209
6 | 16:02.60 | 4:05.03 | 72210 | 90587
7 | 20:07.63 | 4:31.37 | 90588 | 110949
8 | 24:39.25 | 4:02.38 | 110950 | 129137
9 | 28:41.63 | 3:17.12 | 129138 | 143924
10 | 31:59.00 | 2:28.00 | 143925 | 155024
11 | 34:27.00 | 2:39.25 | 155025 | 166974
12 | 37:06.25 | 2:56.05 | 166975 | 180179
Track 1
Filename C:\eac rips\Pete Fountain\01 Cheek to Cheek.wav
Pre-gap length 0:00:02.00
Peak level 94.4 %
Extraction speed 2.8 X
Track quality 99.9 %
Test CRC CC13B51B
Copy CRC CC13B51B
Accurately ripped (confidence 2) [6D8BF1DE] (AR v2)
Copy OK
Track 2
Filename C:\eac rips\Pete Fountain\02 Smoke Rings.wav
Pre-gap length 0:00:01.33
Peak level 94.4 %
Extraction speed 4.2 X
Track quality 100.0 %
Test CRC B8D57BFA
Copy CRC B8D57BFA
Accurately ripped (confidence 2) [A779F158] (AR v2)
Copy OK
Track 3
Filename C:\eac rips\Pete Fountain\03 Girl of My Dreams.wav
Pre-gap length 0:00:01.33
Peak level 94.4 %
Extraction speed 3.1 X
Track quality 99.9 %
Test CRC A73D12E0
Copy CRC A73D12E0
Accurately ripped (confidence 2) [29AB2E0B] (AR v2)
Copy OK
Track 4
Filename C:\eac rips\Pete Fountain\04 Sweet and Lovely.wav
Pre-gap length 0:00:01.33
Peak level 77.8 %
Extraction speed 4.6 X
Track quality 100.0 %
Test CRC 429E6D9C
Copy CRC 429E6D9C
Accurately ripped (confidence 2) [7A0BBF36] (AR v2)
Copy OK
Track 5
Filename C:\eac rips\Pete Fountain\05 You Must Have Been a Beautiful Baby.wav
Pre-gap length 0:00:01.33
Peak level 92.1 %
Extraction speed 4.7 X
Track quality 100.0 %
Test CRC 5A089E77
Copy CRC 5A089E77
Accurately ripped (confidence 2) [03B401D8] (AR v2)
Copy OK
Track 6
Filename C:\eac rips\Pete Fountain\06 Unforgettable.wav
Pre-gap length 0:00:01.40
Peak level 91.1 %
Extraction speed 4.2 X
Track quality 99.9 %
Test CRC 8177D686
Copy CRC 8177D686
Accurately ripped (confidence 2) [2FB1785F] (AR v2)
Copy OK
Track 7
Filename C:\eac rips\Pete Fountain\07 Paradise.wav
Pre-gap length 0:00:01.46
Peak level 94.4 %
Extraction speed 5.6 X
Track quality 100.0 %
Test CRC 0621780A
Copy CRC 0621780A
Accurately ripped (confidence 2) [82805426] (AR v2)
Copy OK
Track 8
Filename C:\eac rips\Pete Fountain\08 'Deed I Do.wav
Pre-gap length 0:00:01.33
Peak level 94.4 %
Extraction speed 5.8 X
Track quality 100.0 %
Test CRC FD5D2A29
Copy CRC FD5D2A29
Accurately ripped (confidence 2) [B7560E8D] (AR v2)
Copy OK
Track 9
Filename C:\eac rips\Pete Fountain\09 Rose Room.wav
Pre-gap length 0:00:01.26
Peak level 84.8 %
Extraction speed 5.8 X
Track quality 100.0 %
Test CRC 41F4B7F1
Copy CRC 41F4B7F1
Accurately ripped (confidence 2) [4EFCF9DA] (AR v2)
Copy OK
Track 10
Filename C:\eac rips\Pete Fountain\10 I Let a Song Go Out of My Heart.wav
Pre-gap length 0:00:01.29
Peak level 80.4 %
Extraction speed 5.7 X
Track quality 100.0 %
Test CRC 80688556
Copy CRC 80688556
Accurately ripped (confidence 2) [FCC4CB9D] (AR v2)
Copy OK
Track 11
Filename C:\eac rips\Pete Fountain\11 I Can't Believe That You're Still in Love With Me.wav
Pre-gap length 0:00:01.33
Peak level 80.9 %
Extraction speed 4.4 X
Track quality 99.9 %
Test CRC F1BCEEDD
Copy CRC F1BCEEDD
Accurately ripped (confidence 2) [FD1B7085] (AR v2)
Copy OK
Track 12
Filename C:\eac rips\Pete Fountain\12 Nobody's Darlin'.wav
Pre-gap length 0:00:01.40
Peak level 79.2 %
Extraction speed 6.2 X
Track quality 100.0 %
Test CRC 7DB324E9
Copy CRC 7DB324E9
Accurately ripped (confidence 2) [D843EC63] (AR v2)
Copy OK
All tracks accurately ripped
No errors occurred
End of status report
---- CUETools DB Plugin V2.1.4
[CTDB TOCID: DnGNFMJmnCv0LoLrEFWXnxFDtv8-] disk not present in database
Submit result: DnGNFMJmnCv0LoLrEFWXnxFDtv8- has been uploaded
==== Log checksum DE977BAC0AF25F6A014C293B7BBCB6AADEE86A74C7E160D51DAFD708122A7818 ====
 
Содержание индексной карты (.CUE)
REM GENRE Jazz
REM DATE 1993
REM DISCID A709620C
REM COMMENT "ExactAudioCopy v1.0b3"
PERFORMER "Pete Fountain"
TITLE "Cheek to Cheek"
FILE "01 - Cheek to Cheek.wav" WAVE
TRACK 01 AUDIO
TITLE "Cheek to Cheek"
PERFORMER "Pete Fountain"
INDEX 01 00:00:00
TRACK 02 AUDIO
TITLE "Smoke Rings"
PERFORMER "Pete Fountain"
INDEX 00 03:00:20
FILE "02 - Smoke Rings.wav" WAVE
INDEX 01 00:00:00
TRACK 03 AUDIO
TITLE "Girl of My Dreams"
PERFORMER "Pete Fountain"
INDEX 00 04:13:28
FILE "03 - Girl of My Dreams.wav" WAVE
INDEX 01 00:00:00
TRACK 04 AUDIO
TITLE "Sweet and Lovely"
PERFORMER "Pete Fountain"
INDEX 00 02:34:25
FILE "04 - Sweet and Lovely.wav" WAVE
INDEX 01 00:00:00
TRACK 05 AUDIO
TITLE "You Must Have Been a Beautiful Baby"
PERFORMER "Pete Fountain"
INDEX 00 03:17:60
FILE "05 - You Must Have Been a Beautiful Baby.wav" WAVE
INDEX 01 00:00:00
TRACK 06 AUDIO
TITLE "Unforgettable"
PERFORMER "Pete Fountain"
INDEX 00 02:50:22
FILE "06 - Unforgettable.wav" WAVE
INDEX 01 00:00:00
TRACK 07 AUDIO
TITLE "Paradise"
PERFORMER "Pete Fountain"
INDEX 00 04:03:43
FILE "07 - Paradise.wav" WAVE
INDEX 01 00:00:00
TRACK 08 AUDIO
TITLE "'Deed I Do"
PERFORMER "Pete Fountain"
INDEX 00 04:30:12
FILE "08 - 'Deed I Do.wav" WAVE
INDEX 01 00:00:00
TRACK 09 AUDIO
TITLE "Rose Room"
PERFORMER "Pete Fountain"
INDEX 00 04:01:18
FILE "09 - Rose Room.wav" WAVE
INDEX 01 00:00:00
TRACK 10 AUDIO
TITLE "I Let a Song Go Out of My Heart"
PERFORMER "Pete Fountain"
INDEX 00 03:15:65
FILE "10 - I Let a Song Go Out of My Heart.wav" WAVE
INDEX 01 00:00:00
TRACK 11 AUDIO
TITLE "I Can't Believe That You're Still in Love with Me"
PERFORMER "Pete Fountain"
INDEX 00 02:26:50
FILE "11 - I Can't Believe That You're Still in Love with Me.wav" WAVE
INDEX 01 00:00:00
TRACK 12 AUDIO
TITLE "Nobody's Darlin'"
PERFORMER "Pete Fountain"
INDEX 00 02:37:70
FILE "12 - Nobody's Darlin'.wav" WAVE
INDEX 01 00:00:00
 
Отчет CUETools
[CUETools log; Date: 13.09.2013 22:07:32; Version: 2.1.4]
[CTDB TOCID: DnGNFMJmnCv0LoLrEFWXnxFDtv8-] found.
Track | CTDB Status
1 | (1/1) Accurately ripped
2 | (1/1) Accurately ripped
3 | (1/1) Accurately ripped
4 | (1/1) Accurately ripped
5 | (1/1) Accurately ripped
6 | (1/1) Accurately ripped
7 | (1/1) Accurately ripped
8 | (1/1) Accurately ripped
9 | (1/1) Accurately ripped
10 | (1/1) Accurately ripped
11 | (1/1) Accurately ripped
12 | (1/1) Accurately ripped
[AccurateRip ID: 00124bd9-00ab031a-a709620c] found.
Track [ CRC | V2 ] Status
01 [7c2e9f46|6d8bf1de] (0+2/2) Accurately ripped
02 [b666bcfd|a779f158] (0+2/2) Accurately ripped
03 [82512589|29ab2e0b] (0+2/2) Accurately ripped
04 [fa25077e|7a0bbf36] (0+2/2) Accurately ripped
05 [33d25e4c|03b401d8] (0+2/2) Accurately ripped
06 [8d82477c|2fb1785f] (0+2/2) Accurately ripped
07 [ab1432e2|82805426] (0+2/2) Accurately ripped
08 [e1cc9b1b|b7560e8d] (0+2/2) Accurately ripped
09 [17df46e6|4efcf9da] (0+2/2) Accurately ripped
10 [90d8e021|fcc4cb9d] (0+2/2) Accurately ripped
11 [3c23aa52|fd1b7085] (0+2/2) Accurately ripped
12 [05d1b7bc|d843ec63] (0+2/2) Accurately ripped
Track Peak [ CRC32 ] [W/O NULL] [ LOG ]
-- 94,4 [37086EF2] [642E0E54]
01 94,4 [CC13B51B] [6FA011BE] CRC32
02 94,4 [B8D57BFA] [063DDD34] CRC32
03 94,4 [A73D12E0] [B068C368] CRC32
04 77,8 [429E6D9C] [69A56263] CRC32
05 92,1 [5A089E77] [4A59FF7B] CRC32
06 91,1 [8177D686] [09830DF7] CRC32
07 94,4 [0621780A] [97C6824C] CRC32
08 94,4 [FD5D2A29] [C8C6BCC7] CRC32
09 84,8 [41F4B7F1] [79FD0010] CRC32
10 80,4 [80688556] [8CB7AC23] CRC32
11 80,9 [F1BCEEDD] [46B5E0AD] CRC32
12 79,2 [7DB324E9] [4332ABE8] CRC32
 
Review by Scott Yanow
Clarinetist Pete Fountain designed this CD as a romantic and very danceable ballad album and even such songs as "Rose Room" and "I Can't Believe That You're in Love with Me" are taken at slow tempoes. Accompanied by an inflexible rhythm section that probably regarded jazz as a second language and a dull trombone section, Fountain still sounds enthusiastic. His tone is the only reason to acquire this disappointing set.
09:24
683
Нет комментариев. Ваш будет первым!