Поиск

(Dixieland, New Orleans Jazz Revival) [CD] Al Hirt - Pete Fountain Presents The Best of Dixieland (aka Al Hirt's Jazz Band Ball) - 1956 (2001), FLAC (tracks+.cue), lossless

(Dixieland, New Orleans Jazz Revival) [CD] Al Hirt - Pete Fountain Presents The Best of Dixieland (aka Al Hirt's Jazz Band Ball) - 1956 (2001), FLAC (tracks+.cue), lossless
Треклист:
Al Hirt - Pete Fountain Presents The Best of Dixieland (aka Al Hirt's Jazz Band Ball)
Жанр: Dixieland, New Orleans Jazz Revival
Носитель: CD
Год издания: 2001
Издатель (лейбл): Verve
Номер по каталогу: 5168161
Аудиокодек: FLAC (*.flac)
Тип рипа: tracks+.cue
Битрейт аудио: lossless
Продолжительность: 46:50
Источник (релизер): lyzibang (what)
Наличие сканов в содержимом раздачи: да
Треклист:
01. The Original Dixieland One-Step (4:11)
02. Tin Roof Blues (4:37)
03. Royal Garden Blues (2:50)
04. Panama (3:28)
05. Blue and Broken-Hearted (2:54)
06. Wolverine Blues (5:19)
07. Washington and Lee Swing (3:10)
08. I'm Going Home (4:25)
09. Jazz Me Blues (3:37)
10. Night and Day (3:08)
11. South Rampart Street Parade (5:33)
12. Sugar (3:38)
 
Лог создания рипа
Exact Audio Copy V1.0 beta 3 from 29. August 2011
EAC extraction logfile from 22. December 2013, 15:45
Al Hirt / The Best of Dixieland
Used drive : MATSHITADVD+-RW UJ8C2 Adapter: 1 ID: 0
Read mode : Secure
Utilize accurate stream : Yes
Defeat audio cache : Yes
Make use of C2 pointers : No
Read offset correction : 103
Overread into Lead-In and Lead-Out : No
Fill up missing offset samples with silence : Yes
Delete leading and trailing silent blocks : No
Null samples used in CRC calculations : Yes
Used interface : Native Win32 interface for Win NT & 2000
Gap handling : Appended to previous track
Used output format : Internal WAV Routines
Sample format : 44.100 Hz; 16 Bit; Stereo
TOC of the extracted CD
Track | Start | Length | Start sector | End sector
---------------------------------------------------------
1 | 0:00.00 | 4:10.55 | 0 | 18804
2 | 4:10.55 | 4:36.70 | 18805 | 39574
3 | 8:47.50 | 2:50.17 | 39575 | 52341
4 | 11:37.67 | 3:28.15 | 52342 | 67956
5 | 15:06.07 | 2:54.20 | 67957 | 81026
6 | 18:00.27 | 5:18.45 | 81027 | 104921
7 | 23:18.72 | 3:09.53 | 104922 | 119149
8 | 26:28.50 | 4:24.57 | 119150 | 139006
9 | 30:53.32 | 3:36.55 | 139007 | 155261
10 | 34:30.12 | 3:07.68 | 155262 | 169354
11 | 37:38.05 | 5:33.15 | 169355 | 194344
12 | 43:11.20 | 3:38.10 | 194345 | 210704
Track 1
Filename C:\Al Hirt Pete Fountain Presents the Best of Dixieland - Al Hirt (2001 Reissue Verve 5168161)\01 The Original Dixieland One-step.wav
Pre-gap length 0:00:02.00
Peak level 98.1 %
Extraction speed 2.4 X
Track quality 100.0 %
Test CRC EE5BAFE3
Copy CRC EE5BAFE3
Cannot be verified as accurate (confidence 4) [CC0DFE1C], AccurateRip returned [4EA87D5E] (AR v2)
Copy OK
Track 2
Filename C:\Al Hirt Pete Fountain Presents the Best of Dixieland - Al Hirt (2001 Reissue Verve 5168161)\02 Tin Roof Blues.wav
Pre-gap length 0:00:04.20
Peak level 87.2 %
Extraction speed 2.8 X
Track quality 100.0 %
Test CRC 6E13331E
Copy CRC 6E13331E
Cannot be verified as accurate (confidence 4) [EFF5E357], AccurateRip returned [B2B0AB79] (AR v2)
Copy OK
Track 3
Filename C:\Al Hirt Pete Fountain Presents the Best of Dixieland - Al Hirt (2001 Reissue Verve 5168161)\03 Royal Garden Blues.wav
Pre-gap length 0:00:03.10
Peak level 99.6 %
Extraction speed 2.8 X
Track quality 100.0 %
Test CRC C675D70E
Copy CRC C675D70E
Cannot be verified as accurate (confidence 4) [30D630D2], AccurateRip returned [E923E63D] (AR v2)
Copy OK
Track 4
Filename C:\Al Hirt Pete Fountain Presents the Best of Dixieland - Al Hirt (2001 Reissue Verve 5168161)\04 Panama.wav
Pre-gap length 0:00:02.86
Peak level 97.8 %
Extraction speed 3.1 X
Track quality 100.0 %
Test CRC 2DC88B94
Copy CRC 2DC88B94
Cannot be verified as accurate (confidence 4) [F74D3162], AccurateRip returned [44E47A9E] (AR v2)
Copy OK
Track 5
Filename C:\Al Hirt Pete Fountain Presents the Best of Dixieland - Al Hirt (2001 Reissue Verve 5168161)\05 Blue and Broken-Hearted.wav
Pre-gap length 0:00:03.36
Peak level 60.4 %
Extraction speed 2.1 X
Track quality 99.9 %
Test CRC DA79345A
Copy CRC DA79345A
Cannot be verified as accurate (confidence 4) [0226A62D], AccurateRip returned [628F0670] (AR v2)
Copy OK
Track 6
Filename C:\Al Hirt Pete Fountain Presents the Best of Dixieland - Al Hirt (2001 Reissue Verve 5168161)\06 Wolverine Blues.wav
Pre-gap length 0:00:03.13
Peak level 91.8 %
Extraction speed 3.6 X
Track quality 100.0 %
Test CRC CA256E9F
Copy CRC CA256E9F
Cannot be verified as accurate (confidence 4) [663533BA], AccurateRip returned [F5FCC83B] (AR v2)
Copy OK
Track 7
Filename C:\Al Hirt Pete Fountain Presents the Best of Dixieland - Al Hirt (2001 Reissue Verve 5168161)\07 Washington and Lee Swing.wav
Pre-gap length 0:00:02.42
Peak level 91.8 %
Extraction speed 3.5 X
Track quality 100.0 %
Test CRC F950ECF1
Copy CRC F950ECF1
Cannot be verified as accurate (confidence 4) [61BC86C8], AccurateRip returned [779596C3] (AR v2)
Copy OK
Track 8
Filename C:\Al Hirt Pete Fountain Presents the Best of Dixieland - Al Hirt (2001 Reissue Verve 5168161)\08 I'm Going Home.wav
Pre-gap length 0:00:02.13
Peak level 99.6 %
Extraction speed 3.9 X
Track quality 100.0 %
Test CRC 5776E55F
Copy CRC 5776E55F
Cannot be verified as accurate (confidence 4) [9C537975], AccurateRip returned [2400FF9F] (AR v2)
Copy OK
Track 9
Filename C:\Al Hirt Pete Fountain Presents the Best of Dixieland - Al Hirt (2001 Reissue Verve 5168161)\09 Jazz Me Blues.wav
Pre-gap length 0:00:02.42
Peak level 93.0 %
Extraction speed 3.9 X
Track quality 100.0 %
Test CRC D612E9B8
Copy CRC D612E9B8
Cannot be verified as accurate (confidence 4) [B289F89D], AccurateRip returned [18946118] (AR v2)
Copy OK
Track 10
Filename C:\Al Hirt Pete Fountain Presents the Best of Dixieland - Al Hirt (2001 Reissue Verve 5168161)\10 Night and Day.wav
Pre-gap length 0:00:03.09
Peak level 84.4 %
Extraction speed 2.7 X
Track quality 99.9 %
Test CRC 08BD54AE
Copy CRC 08BD54AE
Cannot be verified as accurate (confidence 4) [49A05A87], AccurateRip returned [85999235] (AR v2)
Copy OK
Track 11
Filename C:\Al Hirt Pete Fountain Presents the Best of Dixieland - Al Hirt (2001 Reissue Verve 5168161)\11 South Rampart Street Parade.wav
Pre-gap length 0:00:03.10
Peak level 99.6 %
Extraction speed 4.4 X
Track quality 100.0 %
Test CRC 0745D889
Copy CRC 0745D889
Cannot be verified as accurate (confidence 4) [A5EA80E3], AccurateRip returned [D836B86F] (AR v2)
Copy OK
Track 12
Filename C:\Al Hirt Pete Fountain Presents the Best of Dixieland - Al Hirt (2001 Reissue Verve 5168161)\12 Sugar.wav
Pre-gap length 0:00:02.57
Peak level 90.8 %
Extraction speed 3.2 X
Track quality 99.9 %
Test CRC 29E50B48
Copy CRC 29E50B48
Cannot be verified as accurate (confidence 4) [CBB2AB10], AccurateRip returned [C644A7CE] (AR v2)
Copy OK
No tracks could be verified as accurate
You may have a different pressing from the one(s) in the database
No errors occurred
End of status report
==== Log checksum 07DE1F4F3AC889F5247F2FF943CB31B7B9E3663EBDAE7CF280A73B1ED27B1FB6 ====
 
Содержание индексной карты (.CUE)
REM GENRE Jazz
REM DATE 1956
REM DISCID 9E0AF90C
REM COMMENT "ExactAudioCopy v1.0b3"
CATALOG 0731454936224
PERFORMER "Al Hirt"
TITLE "The Best of Dixieland"
FILE "01 - The Original Dixieland One-step.wav" WAVE
TRACK 01 AUDIO
TITLE "The Original Dixieland One-step"
PERFORMER "Al Hirt"
ISRC USGR10001136
INDEX 01 00:00:00
TRACK 02 AUDIO
TITLE "Tin Roof Blues"
PERFORMER "Al Hirt"
ISRC USGR10001135
INDEX 00 04:06:40
FILE "02 - Tin Roof Blues.wav" WAVE
INDEX 01 00:00:00
TRACK 03 AUDIO
TITLE "Royal Garden Blues"
PERFORMER "Al Hirt"
ISRC USGR10001137
INDEX 00 04:33:62
FILE "03 - Royal Garden Blues.wav" WAVE
INDEX 01 00:00:00
TRACK 04 AUDIO
TITLE "Panama"
PERFORMER "Al Hirt"
ISRC USGR10001138
INDEX 00 02:47:27
FILE "04 - Panama.wav" WAVE
INDEX 01 00:00:00
TRACK 05 AUDIO
TITLE "Blue and Broken-Hearted"
PERFORMER "Al Hirt"
ISRC USGR10001139
INDEX 00 03:24:63
FILE "05 - Blue and Broken-Hearted.wav" WAVE
INDEX 01 00:00:00
TRACK 06 AUDIO
TITLE "Wolverine Blues"
PERFORMER "Al Hirt"
ISRC USGR10001140
INDEX 00 02:51:10
FILE "06 - Wolverine Blues.wav" WAVE
INDEX 01 00:00:00
TRACK 07 AUDIO
TITLE "Washington and Lee Swing"
PERFORMER "Al Hirt"
ISRC USGR10001141
INDEX 00 05:16:13
FILE "07 - Washington and Lee Swing.wav" WAVE
INDEX 01 00:00:00
TRACK 08 AUDIO
TITLE "I'm Going Home"
PERFORMER "Al Hirt"
ISRC USGR10001142
INDEX 00 03:07:43
FILE "08 - I'm Going Home.wav" WAVE
INDEX 01 00:00:00
TRACK 09 AUDIO
TITLE "Jazz Me Blues"
PERFORMER "Al Hirt"
ISRC USGR10001143
INDEX 00 04:22:25
FILE "09 - Jazz Me Blues.wav" WAVE
INDEX 01 00:00:00
TRACK 10 AUDIO
TITLE "Night and Day"
PERFORMER "Al Hirt"
ISRC USGR10001144
INDEX 00 03:33:48
FILE "10 - Night and Day.wav" WAVE
INDEX 01 00:00:00
TRACK 11 AUDIO
TITLE "South Rampart Street Parade"
PERFORMER "Al Hirt"
ISRC USGR10001145
INDEX 00 03:04:60
FILE "11 - South Rampart Street Parade.wav" WAVE
INDEX 01 00:00:00
TRACK 12 AUDIO
TITLE "Sugar"
PERFORMER "Al Hirt"
ISRC USGR10001146
INDEX 00 05:30:47
FILE "12 - Sugar.wav" WAVE
INDEX 01 00:00:00
 
Отчет CUETools
[CUETools log; Date: 23.12.2013 20:36:13; Version: 2.1.4]
[CTDB TOCID: I7QIpRQafIGIbWZr2uCQITIDGqo-] found.
Track | CTDB Status
1 | (2/2) Accurately ripped
2 | (2/2) Accurately ripped
3 | (2/2) Accurately ripped
4 | (2/2) Accurately ripped
5 | (2/2) Accurately ripped
6 | (2/2) Accurately ripped
7 | (2/2) Accurately ripped
8 | (2/2) Accurately ripped
9 | (2/2) Accurately ripped
10 | (2/2) Accurately ripped
11 | (2/2) Accurately ripped
12 | (2/2) Accurately ripped
[AccurateRip ID: 0014a304-00c085ee-9e0af90c] found.
Track [ CRC | V2 ] Status
01 [398ac688|cc0dfe1c] (0+0/4) No match
02 [3d84f26e|eff5e357] (0+0/4) No match
03 [9dad4bc5|30d630d2] (0+0/4) No match
04 [7e41b44b|f74d3162] (0+0/4) No match
05 [755f7497|0226a62d] (0+0/4) No match
06 [4e15d279|663533ba] (0+0/4) No match
07 [b1e851d3|61bc86c8] (0+0/4) No match
08 [0adbc7ce|9c537975] (0+0/4) No match
09 [3da7099f|b289f89d] (0+0/4) No match
10 [1e1f6872|49a05a87] (0+0/4) No match
11 [5c725de8|a5ea80e3] (0+0/4) No match
12 [9e232bd3|cbb2ab10] (0+0/4) No match
Offsetted by 664:
01 [92313dc8] (0/4) No match (V2 was not tested)
02 [f19579c6] (0/4) No match (V2 was not tested)
03 [e645fe9d] (0/4) No match (V2 was not tested)
04 [7d5a289b] (0/4) No match (V2 was not tested)
05 [6c516717] (0/4) No match (V2 was not tested)
06 [ef458679] (0/4) No match (V2 was not tested)
07 [67944743] (0/4) No match (V2 was not tested)
08 [7ac44206] (0/4) No match (V2 was not tested)
09 [5cf930d7] (0/4) No match (V2 was not tested)
10 [f7c70172] (0/4) No match (V2 was not tested)
11 [ad921f30] (0/4) No match (V2 was not tested)
12 [56127b6b] (0/4) No match (V2 was not tested)
Track Peak [ CRC32 ] [W/O NULL] [ LOG ]
-- 99,6 [3E5BD609] [BBABEE5A]
01 98,1 [EE5BAFE3] [E3666322] CRC32
02 87,2 [6E13331E] [1F639BDF] CRC32
03 99,6 [C675D70E] [90928753] CRC32
04 97,8 [2DC88B94] [3BC96D5F] CRC32
05 60,4 [DA79345A] [142EB4D4] CRC32
06 91,8 [CA256E9F] [AFFE46B1] CRC32
07 91,8 [F950ECF1] [ABC3957E] CRC32
08 99,6 [5776E55F] [DD55F52E] CRC32
09 93,0 [D612E9B8] [6EDD6560] CRC32
10 84,4 [08BD54AE] [D6A8548C] CRC32
11 99,6 [0745D889] [908450BE] CRC32
12 90,8 [29E50B48] [EF91BF6B] CRC32
 
Review by Scott Yanow
A straight CD reissue of Al Hirt's Jazz Band Ball from 1956, this is one of the finest recordings ever of trumpeter Al Hirt and clarinetist Pete Fountain. A classic Dixieland set, it finds Hirt and Fountain in their early prime quite inspired by each other's ideas. With the assistance of a fine rhythm section and the underrated trombonist Bob Havens, Hirt and Fountain romp through such numbers as "The Original Dixieland One-Step," "Royal Garden Blues," "Jazz Me Blues," and "South Rampart Street Parade." A special bonus is that Fountain takes very rare tenor solos on two songs, being showcased (and sounding like Eddie Miller) on "Washington and Lee Swing." Essential music for Dixieland fans.
 
Состав
Al Hirt - trumpet
Pete Fountain - clarinet, tenor saxophone
Bob Havens - trombone
Roy Zimmerman - piano
Bob Coquille - bass
Paul Edwards - drums
Recorded in New Orleans in 1956.
10:35
718
Нет комментариев. Ваш будет первым!