Вы используете незарегистрированную версию компонента "Вкладки"!

Поиск

(Dixieland, Mainstream Jazz) [CD] Vic Dickenson - Gentleman of the Trombone - 1975 (2000), FLAC (tracks+.cue), lossless

(Dixieland, Mainstream Jazz) [CD] Vic Dickenson - Gentleman of the Trombone - 1975 (2000), FLAC (tracks+.cue), lossless
Треклист:
Vic Dickenson - Gentleman of the Trombone
Жанр: Dixieland, Mainstream Jazz
Носитель: CD
Страна-производитель диска (релиза): Дания
Год издания: 2000
Издатель (лейбл): Storyville
Номер по каталогу: STCD 5008
Аудиокодек: FLAC (*.flac)
Тип рипа: tracks+.cue
Битрейт аудио: lossless
Продолжительность: 58:23
Источник (релизер): GarbageTart (what)
Наличие сканов в содержимом раздачи: нет
Треклист:
01. Too Marvelous for Words (Whiting-Mercer) - 5:05
02. Nice and Easy Blues (Dickenson) - 6:04
03. Just Too Late (Dickenson) - 4:59
04. Shine (Dabney-Mack-Brown) - 4:19
05. Sweet Sue, Just You (Harris-Young) - 5:03
06. Bye Bye Blackbird (Henderson-Dixon) - 6:19
07. More Rain (Smith) - 3:01
08. S'posin' (Denniker-Razaf) - 8:01
09. Love Letters in the Sand (Coots-Kenny-Kenny) - 4:29
10. Christopher Columbus (Berry-Razaf) - 5:29
11. I Ain't Got Nobody (Graham-Peyton-Williams) - 5:34
Состав:
Vic Dickenson - trombone, vocals
Johnny Guarnieri - piano
Bill Pemberton - bass
Oliver Jackson - drums
Recorded at Studio 16, La Fontonne, Antibes on July 25, 1975.
 
Лог создания рипа
Exact Audio Copy V1.0 beta 3 from 29. August 2011
EAC extraction logfile from 18. March 2015, 19:07
Vic Dickenson / Gentleman of the Trombone
Used drive : PLDS DVD-RW DS8A8SH Adapter: 0 ID: 1
Read mode : Secure
Utilize accurate stream : Yes
Defeat audio cache : Yes
Make use of C2 pointers : No
Read offset correction : 6
Overread into Lead-In and Lead-Out : No
Fill up missing offset samples with silence : Yes
Delete leading and trailing silent blocks : No
Null samples used in CRC calculations : Yes
Used interface : Native Win32 interface for Win NT & 2000
Gap handling : Appended to previous track
Used output format : User Defined Encoder
Selected bitrate : 1024 kBit/s
Quality : High
Add ID3 tag : No
Command line compressor : T:\Software\Exact Audio Copy\FLAC\FLAC.EXE
Additional command line options : -6 -V -T "ARTIST=%artist%" -T "TITLE=%title%" -T "ALBUM=%albumtitle%" -T "DATE=%year%" -T "TRACKNUMBER=%tracknr%" -T "GENRE=%genre%" -T "COMMENT=%comment%" -T "BAND=%albuminterpret%" -T "ALBUMARTIST=%albuminterpret%" -T "COMPOSER=%composer%" %haslyrics%--tag-from-file=LYRICS="%lyricsfile%"%haslyrics% -T "DISCNUMBER=%cdnumber%" -T "TOTALDISCS=%totalcds%" -T "TOTALTRACKS=%numtracks%" %hascover%--picture="%coverfile%"%hascover% %source% -o %dest%
TOC of the extracted CD
Track | Start | Length | Start sector | End sector
---------------------------------------------------------
1 | 0:00.00 | 5:05.02 | 0 | 22876
2 | 5:05.02 | 6:03.40 | 22877 | 50141
3 | 11:08.42 | 4:59.09 | 50142 | 72575
4 | 16:07.51 | 4:18.62 | 72576 | 91987
5 | 20:26.38 | 5:03.02 | 91988 | 114714
6 | 25:29.40 | 6:19.27 | 114715 | 143166
7 | 31:48.67 | 3:01.17 | 143167 | 156758
8 | 34:50.09 | 8:01.05 | 156759 | 192838
9 | 42:51.14 | 4:28.72 | 192839 | 213010
10 | 47:20.11 | 5:28.49 | 213011 | 237659
11 | 52:48.60 | 5:34.16 | 237660 | 262725
Track 1
Filename H:\Upload 1.20.15\FLACs\Vic Dickenson - Gentleman of the Trombone [FLAC-CD-2000]\01 - Gentleman of the Trombone - Too Marvelous for Words.wav
Pre-gap length 0:00:02.00
Peak level 95.3 %
Extraction speed 2.1 X
Track quality 100.0 %
Test CRC F4B8A130
Copy CRC F4B8A130
Track not present in AccurateRip database
Copy OK
Track 2
Filename H:\Upload 1.20.15\FLACs\Vic Dickenson - Gentleman of the Trombone [FLAC-CD-2000]\02 - Gentleman of the Trombone - Nice and Easy Blues.wav
Peak level 83.8 %
Extraction speed 2.0 X
Track quality 99.9 %
Test CRC 5C5F5E9F
Copy CRC 5C5F5E9F
Track not present in AccurateRip database
Copy OK
Track 3
Filename H:\Upload 1.20.15\FLACs\Vic Dickenson - Gentleman of the Trombone [FLAC-CD-2000]\03 - Gentleman of the Trombone - Just Too Late.wav
Peak level 99.9 %
Extraction speed 2.1 X
Track quality 99.9 %
Test CRC B8368167
Copy CRC B8368167
Track not present in AccurateRip database
Copy OK
Track 4
Filename H:\Upload 1.20.15\FLACs\Vic Dickenson - Gentleman of the Trombone [FLAC-CD-2000]\04 - Gentleman of the Trombone - Shine.wav
Peak level 82.8 %
Extraction speed 2.7 X
Track quality 100.0 %
Test CRC 001E0C87
Copy CRC 001E0C87
Track not present in AccurateRip database
Copy OK
Track 5
Filename H:\Upload 1.20.15\FLACs\Vic Dickenson - Gentleman of the Trombone [FLAC-CD-2000]\05 - Gentleman of the Trombone - Sweet Sue, Just You.wav
Peak level 86.9 %
Extraction speed 2.9 X
Track quality 100.0 %
Test CRC 5E2699C6
Copy CRC 5E2699C6
Track not present in AccurateRip database
Copy OK
Track 6
Filename H:\Upload 1.20.15\FLACs\Vic Dickenson - Gentleman of the Trombone [FLAC-CD-2000]\06 - Gentleman of the Trombone - Bye Bye Blackbird.wav
Peak level 84.7 %
Extraction speed 3.2 X
Track quality 100.0 %
Test CRC A5AEE115
Copy CRC A5AEE115
Track not present in AccurateRip database
Copy OK
Track 7
Filename H:\Upload 1.20.15\FLACs\Vic Dickenson - Gentleman of the Trombone [FLAC-CD-2000]\07 - Gentleman of the Trombone - More Rain.wav
Peak level 83.7 %
Extraction speed 2.2 X
Track quality 99.9 %
Test CRC 0D176600
Copy CRC 0D176600
Track not present in AccurateRip database
Copy OK
Track 8
Filename H:\Upload 1.20.15\FLACs\Vic Dickenson - Gentleman of the Trombone [FLAC-CD-2000]\08 - Gentleman of the Trombone - S'posin'.wav
Peak level 99.6 %
Extraction speed 3.1 X
Track quality 99.9 %
Test CRC 2C2B9592
Copy CRC 2C2B9592
Track not present in AccurateRip database
Copy OK
Track 9
Filename H:\Upload 1.20.15\FLACs\Vic Dickenson - Gentleman of the Trombone [FLAC-CD-2000]\09 - Gentleman of the Trombone - Love Letters in the Sand.wav
Peak level 99.9 %
Extraction speed 3.5 X
Track quality 100.0 %
Test CRC 6EE819FA
Copy CRC 6EE819FA
Track not present in AccurateRip database
Copy OK
Track 10
Filename H:\Upload 1.20.15\FLACs\Vic Dickenson - Gentleman of the Trombone [FLAC-CD-2000]\10 - Gentleman of the Trombone - Christopher Columbus.wav
Peak level 99.8 %
Extraction speed 3.1 X
Track quality 99.9 %
Test CRC 56686506
Copy CRC 56686506
Track not present in AccurateRip database
Copy OK
Track 11
Filename H:\Upload 1.20.15\FLACs\Vic Dickenson - Gentleman of the Trombone [FLAC-CD-2000]\11 - Gentleman of the Trombone - I Ain't Got Nobody.wav
Peak level 85.4 %
Extraction speed 3.9 X
Track quality 100.0 %
Test CRC 69A5ECE8
Copy CRC 69A5ECE8
Track not present in AccurateRip database
Copy OK
None of the tracks are present in the AccurateRip database
No errors occurred
End of status report
==== Log checksum FD1E58DBA90AD622270F97A8C1EC632F7E12B58C88098ED3C655BAD733A8D8DB ====
 
Содержание индексной карты (.CUE)
REM GENRE Jazz
REM DATE 1975
REM DISCID 8C0DAF0B
REM COMMENT "ExactAudioCopy v1.0b3"
PERFORMER "Vic Dickenson"
TITLE "Gentleman of the Trombone"
FILE "01 - Too Marvelous for Words.wav" WAVE
TRACK 01 AUDIO
TITLE "Too Marvelous for Words"
PERFORMER "Vic Dickenson"
INDEX 01 00:00:00
FILE "02 - Nice and Easy Blues.wav" WAVE
TRACK 02 AUDIO
TITLE "Nice and Easy Blues"
PERFORMER "Vic Dickenson"
INDEX 01 00:00:00
FILE "03 - Just Too Late.wav" WAVE
TRACK 03 AUDIO
TITLE "Just Too Late"
PERFORMER "Vic Dickenson"
INDEX 01 00:00:00
FILE "04 - Shine.wav" WAVE
TRACK 04 AUDIO
TITLE "Shine"
PERFORMER "Vic Dickenson"
INDEX 01 00:00:00
FILE "05 - Sweet Sue, Just You.wav" WAVE
TRACK 05 AUDIO
TITLE "Sweet Sue, Just You"
PERFORMER "Vic Dickenson"
INDEX 01 00:00:00
FILE "06 - Bye Bye Blackbird.wav" WAVE
TRACK 06 AUDIO
TITLE "Bye Bye Blackbird"
PERFORMER "Vic Dickenson"
INDEX 01 00:00:00
FILE "07 - More Rain.wav" WAVE
TRACK 07 AUDIO
TITLE "More Rain"
PERFORMER "Vic Dickenson"
INDEX 01 00:00:00
FILE "08 - S'posin'.wav" WAVE
TRACK 08 AUDIO
TITLE "S'posin'"
PERFORMER "Vic Dickenson"
INDEX 01 00:00:00
FILE "09 - Love Letters in the Sand.wav" WAVE
TRACK 09 AUDIO
TITLE "Love Letters in the Sand"
PERFORMER "Vic Dickenson"
INDEX 01 00:00:00
FILE "10 - Christopher Columbus.wav" WAVE
TRACK 10 AUDIO
TITLE "Christopher Columbus"
PERFORMER "Vic Dickenson"
INDEX 01 00:00:00
FILE "11 - I Ain't Got Nobody.wav" WAVE
TRACK 11 AUDIO
TITLE "I Ain't Got Nobody"
PERFORMER "Vic Dickenson"
INDEX 01 00:00:00
 
Review by Steve Loewy
Vic Dickenson was one of the great trombone stylists whose relaxed sound, slurred notes, and impeccable feel invested every solo with a unique warmth never duplicated by anyone else. While he was often recorded as a sideman, he was rarely captured as a leader. This mid-'70s studio session, recorded late in his career, features a mature Dickenson leading a sympathetic rhythm section of pianist Johnny Guarnieri, bassist Bill Pemberton, and drummer Oliver Jackson. The real treasure is the chance to hear the trombonist playing tunes with which he was comfortable and improvising at length. His renditions of "Sweet Sue, Just You," "Christopher Columbus," and "Bye Bye Blackbird" are perfect expositions of his classy way of capturing the essence of a tune. The trombonist sings on a couple of tracks ("Just Too Late" and "More Rain"), but his vocals are more of interest as novelty items for completists. Johnny Guarnieri struts his stuff on "Shine," with a hot solo worthy of the era in which the piece was written.
Any questions -> support@pro-jazz.com. По всем вопросам пишите -> support@pro-jazz.com
17:40
321
Нет комментариев. Ваш будет первым!