Поиск

(Dixieland) Johnny Dodds — The Myth Of New Orleans (1926—1929) — 1990 [Giants Of Jazz CD 53077], FLAC (image+.cue), lossless

(Dixieland) Johnny Dodds — The Myth Of New Orleans (1926—1929) — 1990 [Giants Of Jazz CD 53077], FLAC (image+.cue), lossless
Треклист:
Johnny Dodds — The Myth Of New Orleans (1926—1929)
Жанр: Dixieland
Год выпуска диска: 1990
Производитель диска: EEC
Аудио кодек: FLAC
Тип рипа: image+.cue
Битрейт аудио: lossless
Продолжительность: 71:10
Трэклист:
01. Wild Man Blues
02. Melancholy
03. Heah' Me Talkin'
04. Bull Fiddle Blues
05. Blue Clarinet Stomp
06. Bucktown Stomp
07. Get' Em Again BLues
08. Lady Love
09. Weary Way Blues
10. After You've Gone
11. Carpet Alley-Breakdown
12. Gravier Street Stomp
13. Weary City
14. Perdido Street Blues
15. Oriental Man
16. Gatemouth
17. My Baby
18. New Orleans Stomp
19. Ballin' The Jack
20. Grandma's Ball
21. Indigo Stomp
22. Pencil Papa
23. Flat Foot
24. Too Tight
Дополнительно: Сканы 300 dpi
 
Johnny DODDS
Джо́нни Доддс (12 апреля 1892, Уэйвленд, штат Миссисипи, США — 8 августа 1940, Чикаго) — американский кларнетист, один из первых сольных джазовых исполнителей на этом инструменте.
В раннем возрасте Доддс приехал в Новый Орлеан, где обучался игре на кларнете у Лоренцо Тио. На ранних этапах своей творческой карьеры играл в разных небольших джазовых оркестрах. В 1920 году его пригласил в свой оркестр Джозеф Оливер на место ушедшего Джимми Нуна. Доддс переезжает в Чикаго.
После распада оркестра Оливера в 1924 году Доддс периодически участвует в небольших ансамблях, в том числе в знаменитых «Горячей пятёрке» и «Горячей семёрке» Луи Армстронга и «Горячих красных перцах» Джелли Ролла Мортона. С начала 1930-х годов из-за усилившейся болезни Доддс почти прекратил выступления.
Доддс — один из крупнейших джазовых музыкантов новоорлеанского периода. Его игру отличали высокий профессионализм, виртуозное владение инструментом и мягкое, отчасти блюзовое звучание. Творчество Доддса оказало влияние на последующие поколения джазовых кларнетистов, в частности, на Бенни Гудмена.
Дискография музыканта включает в себя несколько десятков альбомов, записанных во второй половине 1920-х годов.
Источник: ВикипедиЯ
Giants Of Jazz на трекере
 
Отчет ЕАС
Exact Audio Copy V0.99 prebeta 4 from 23. January 2008
EAC extraction logfile from 14. March 2009, 22:40
Johnny Todds / The Myth of New Orleans
Used drive : PIONEER DVD-RW DVR-111D Adapter: 1 ID: 0
Read mode : Secure
Utilize accurate stream : Yes
Defeat audio cache : Yes
Make use of C2 pointers : No
Read offset correction : 48
Overread into Lead-In and Lead-Out : No
Fill up missing offset samples with silence : Yes
Delete leading and trailing silent blocks : No
Null samples used in CRC calculations : Yes
Used interface : Native Win32 interface for Win NT & 2000
Used output format : Internal WAV Routines
Sample format : 44.100 Hz; 16 Bit; Stereo
TOC of the extracted CD
Track | Start | Length | Start sector | End sector
---------------------------------------------------------
1 | 0:00.00 | 3:11.25 | 0 | 14349
2 | 3:11.25 | 2:41.12 | 14350 | 26436
3 | 5:52.37 | 3:13.65 | 26437 | 40976
4 | 9:06.27 | 2:55.03 | 40977 | 54104
5 | 12:01.30 | 3:14.12 | 54105 | 68666
6 | 15:15.42 | 3:13.55 | 68667 | 83196
7 | 18:29.22 | 2:48.60 | 83197 | 95856
8 | 21:18.07 | 2:47.33 | 95857 | 108414
9 | 24:05.40 | 3:06.52 | 108415 | 122416
10 | 27:12.17 | 3:14.30 | 122417 | 136996
11 | 30:26.47 | 2:43.25 | 136997 | 149246
12 | 33:09.72 | 2:45.73 | 149247 | 161694
13 | 35:55.70 | 2:49.57 | 161695 | 174426
14 | 38:45.52 | 3:07.33 | 174427 | 188484
15 | 41:53.10 | 2:44.52 | 188485 | 200836
16 | 44:37.62 | 3:03.40 | 200837 | 214601
17 | 47:41.27 | 2:56.70 | 214602 | 227871
18 | 50:38.22 | 2:46.08 | 227872 | 240329
19 | 53:24.30 | 2:41.72 | 240330 | 252476
20 | 56:06.27 | 2:42.43 | 252477 | 264669
21 | 58:48.70 | 3:07.32 | 264670 | 278726
22 | 61:56.27 | 2:53.15 | 278727 | 291716
23 | 64:49.42 | 3:24.43 | 291717 | 307059
24 | 68:14.10 | 2:56.22 | 307060 | 320281
Range status and errors
Selected range
Filename D:\!CD\53077\Johnny Dodds - The Myth Of New Orleans.wav
Peak level 99.8 %
Range quality 100.0 %
Test CRC D9511B34
Copy CRC D9511B34
Copy OK
No errors occurred
AccurateRip summary
Track 1 not present in database
Track 2 not present in database
Track 3 not present in database
Track 4 not present in database
Track 5 not present in database
Track 6 not present in database
Track 7 not present in database
Track 8 not present in database
Track 9 not present in database
Track 10 not present in database
Track 11 not present in database
Track 12 not present in database
Track 13 not present in database
Track 14 not present in database
Track 15 not present in database
Track 16 not present in database
Track 17 not present in database
Track 18 not present in database
Track 19 not present in database
Track 20 not present in database
Track 21 not present in database
Track 22 not present in database
Track 23 not present in database
Track 24 not present in database
None of the tracks are present in the AccurateRip database
End of status report
Мои раздачи на трекере
Download available for power users only.
10:41
433
Нет комментариев. Ваш будет первым!