Поиск

(Dixieland) Eddie Condon (1930—1944) — 1995 [Giants Of Jazz CD 53183], FLAC (image+.cue), lossless

(Dixieland) Eddie Condon (1930—1944) — 1995 [Giants Of Jazz CD 53183], FLAC (image+.cue), lossless
Треклист:
Eddie Condon (1930—1944)
Жанр: Dixieland
Год выпуска диска: 1995
Производитель диска: EEC
Аудио кодек: FLAC
Тип рипа: image+.cue
Битрейт аудио: lossless
Продолжительность: 64:01
Трэклист:
01. That's A Plenty
02. Panama
03. When Your Lover Has Gone
04. Nobody Knows You When You're Down And Out
05. Rose Room
06. I Must Have That Man
07. Original Dixieland One Step
08. Baby Won't You Please Come Home
09. Sensation
10. Fidgety Feet
11. Oh, Sister Ain't That Hot
12. Georgia Grind
13. Ballin' The Jack
14. I Ain't Gonna Give Nobody None Of My Jelly Roll
15. Ja-Da
16. Love Is Just Around The Corner
17. Embraceable You
18. Sunday
19. California Here I Come
20. The Eel
Дополнительно: Сканы 300 dpi
Giants Of Jazz на трекере
 
Отчет ЕАС
Exact Audio Copy V0.99 prebeta 4 from 23. January 2008
EAC extraction logfile from 18. March 2009, 15:21
Eddie Condon / Eddie Condon 1930-1944
Used drive : PIONEER DVD-RW DVR-111D Adapter: 1 ID: 0
Read mode : Secure
Utilize accurate stream : Yes
Defeat audio cache : Yes
Make use of C2 pointers : No
Read offset correction : 48
Overread into Lead-In and Lead-Out : No
Fill up missing offset samples with silence : Yes
Delete leading and trailing silent blocks : No
Null samples used in CRC calculations : Yes
Used interface : Native Win32 interface for Win NT & 2000
Used output format : Internal WAV Routines
Sample format : 44.100 Hz; 16 Bit; Stereo
TOC of the extracted CD
Track | Start | Length | Start sector | End sector
---------------------------------------------------------
1 | 0:00.00 | 4:10.30 | 0 | 18779
2 | 4:10.30 | 4:15.00 | 18780 | 37904
3 | 8:25.30 | 3:28.17 | 37905 | 53521
4 | 11:53.47 | 3:00.10 | 53522 | 67031
5 | 14:53.57 | 2:57.68 | 67032 | 80374
6 | 17:51.50 | 3:28.65 | 80375 | 96039
7 | 21:20.40 | 3:05.35 | 96040 | 109949
8 | 24:26.00 | 2:51.00 | 109950 | 122774
9 | 27:17.00 | 2:50.55 | 122775 | 135579
10 | 30:07.55 | 2:52.52 | 135580 | 148531
11 | 33:00.32 | 2:55.48 | 148532 | 161704
12 | 35:56.05 | 2:56.15 | 161705 | 174919
13 | 38:52.20 | 2:58.62 | 174920 | 188331
14 | 41:51.07 | 3:00.63 | 188332 | 201894
15 | 44:51.70 | 2:41.32 | 201895 | 214001
16 | 47:33.27 | 3:04.10 | 214002 | 227811
17 | 50:37.37 | 4:06.38 | 227812 | 246299
18 | 54:44.00 | 3:11.72 | 246300 | 260696
19 | 57:55.72 | 3:02.53 | 260697 | 274399
20 | 60:58.50 | 3:02.57 | 274400 | 288106
Range status and errors
Selected range
Filename D:\!CD\new SCANs\53183\Eddie Condon - Eddie Condon 1930-1944.wav
Peak level 100.0 %
Range quality 100.0 %
Test CRC 7548DC25
Copy CRC 7548DC25
Copy OK
No errors occurred
AccurateRip summary
Track 1 not present in database
Track 2 not present in database
Track 3 not present in database
Track 4 not present in database
Track 5 not present in database
Track 6 not present in database
Track 7 not present in database
Track 8 not present in database
Track 9 not present in database
Track 10 not present in database
Track 11 not present in database
Track 12 not present in database
Track 13 not present in database
Track 14 not present in database
Track 15 not present in database
Track 16 not present in database
Track 17 not present in database
Track 18 not present in database
Track 19 not present in database
Track 20 not present in database
None of the tracks are present in the AccurateRip database
End of status report
Мои раздачи на трекере
По всем вопросам пишите личное сообщение пользователю M0p94ok.
11:49
322
Нет комментариев. Ваш будет первым!