Поиск

(Dixieland) Eddie Condon (1927—1943) — 1997 [Giants Of Jazz CD 53292], FLAC (image+.cue), lossless

(Dixieland) Eddie Condon (1927—1943) — 1997 [Giants Of Jazz CD 53292], FLAC (image+.cue), lossless
Треклист:
Eddie Condon (1927—1943)
Жанр: Dixieland
Год выпуска диска: 1997
Производитель диска: EEC
Аудио кодек: FLAC
Тип рипа: image+.cue
Битрейт аудио: lossless
Продолжительность: 72:15
Трэклист:
01. Carnegie Jump
02. Carnegie Drag
03. Meet Me Tonight In Dreamland
04. Diane
05. (You're Some) Pretty Doll
06. Dancing Fool
07. Serenade To A Shylock
08. Beat To The Socks
09. Squeeze Me
10. That's A Plenty
11. Home Cooking
12. Madame Dynamite
13. Tennessee Twilight
14. I'm Gonna Stomp, Mr. Henry Lee
15. That's A Serious Thing
16. I'm Sorry I Made You Cry
17. Makin' Friends
18. Indiana
19. Oh! Baby (Rain Or Shine)
20. Nobody's Sweetheart
21. China Boy
22. Sugar
23. Liza
Дополнительно: Сканы 300 dpi
Giants Of Jazz на трекере
 
Отчет ЕАС
Exact Audio Copy V0.99 prebeta 4 from 23. January 2008
EAC extraction logfile from 18. March 2009, 16:22
Unknown Artist / Unknown Title
Used drive : PIONEER DVD-RW DVR-111D Adapter: 1 ID: 0
Read mode : Secure
Utilize accurate stream : Yes
Defeat audio cache : Yes
Make use of C2 pointers : No
Read offset correction : 48
Overread into Lead-In and Lead-Out : No
Fill up missing offset samples with silence : Yes
Delete leading and trailing silent blocks : No
Null samples used in CRC calculations : Yes
Used interface : Native Win32 interface for Win NT & 2000
Used output format : Internal WAV Routines
Sample format : 44.100 Hz; 16 Bit; Stereo
TOC of the extracted CD
Track | Start | Length | Start sector | End sector
---------------------------------------------------------
1 | 0:00.00 | 2:43.17 | 0 | 12241
2 | 2:43.17 | 3:16.70 | 12242 | 27011
3 | 6:00.12 | 3:10.25 | 27012 | 41286
4 | 9:10.37 | 3:06.10 | 41287 | 55246
5 | 12:16.47 | 2:51.13 | 55247 | 68084
6 | 15:07.60 | 2:47.00 | 68085 | 80609
7 | 17:54.60 | 4:34.30 | 80610 | 101189
8 | 22:29.15 | 2:49.37 | 101190 | 113901
9 | 25:18.52 | 2:56.65 | 113902 | 127166
10 | 28:15.42 | 3:03.35 | 127167 | 140926
11 | 31:19.02 | 3:10.45 | 140927 | 155221
12 | 34:29.47 | 3:00.35 | 155222 | 168756
13 | 37:30.07 | 3:05.70 | 168757 | 182701
14 | 40:36.02 | 3:41.13 | 182702 | 199289
15 | 44:17.15 | 3:33.72 | 199290 | 215336
16 | 47:51.12 | 3:10.08 | 215337 | 229594
17 | 51:01.20 | 3:04.40 | 229595 | 243434
18 | 54:05.60 | 2:59.60 | 243435 | 256919
19 | 57:05.45 | 3:01.17 | 256920 | 270511
20 | 60:06.62 | 3:08.00 | 270512 | 284611
21 | 63:14.62 | 2:46.65 | 284612 | 297126
22 | 66:01.52 | 3:11.23 | 297127 | 311474
23 | 69:13.00 | 3:01.62 | 311475 | 325111
Range status and errors
Selected range
Filename D:\!CD\new SCANs\53292\Unknown Artist - Unknown Title.wav
Peak level 99.4 %
Range quality 100.0 %
Test CRC D868053C
Copy CRC D868053C
Copy OK
No errors occurred
AccurateRip summary
Track 1 not present in database
Track 2 not present in database
Track 3 not present in database
Track 4 not present in database
Track 5 not present in database
Track 6 not present in database
Track 7 not present in database
Track 8 not present in database
Track 9 not present in database
Track 10 not present in database
Track 11 not present in database
Track 12 not present in database
Track 13 not present in database
Track 14 not present in database
Track 15 not present in database
Track 16 not present in database
Track 17 not present in database
Track 18 not present in database
Track 19 not present in database
Track 20 not present in database
Track 21 not present in database
Track 22 not present in database
Track 23 not present in database
None of the tracks are present in the AccurateRip database
End of status report
Мои раздачи на трекере
По всем вопросам пишите личное сообщение пользователю M0p94ok.
11:50
305
Нет комментариев. Ваш будет первым!