Поиск

(Dixieland) [CD] Alvin Alcorn - Sounds Of New Orleans, Vol. 5 - 1990, FLAC (tracks+.cue), lossless

(Dixieland) [CD] Alvin Alcorn - Sounds Of New Orleans, Vol. 5 - 1990, FLAC (tracks+.cue), lossless
Треклист:
Alvin Alcorn - Sounds Of New Orleans, Vol. 5 Жанр: Dixieland
Носитель: CD
Страна-производитель диска: Sweden
Год издания: 1990
Издатель (лейбл): Storyville
Номер по каталогу: STCD 6012
Страна: USA
Аудиокодек: FLAC (*.flac)
Тип рипа: tracks+.cue
Битрейт аудио: lossless
Продолжительность: 45:56
Rip by Musicgate, CD from Render's collection
Наличие сканов в содержимом раздачи: да
Треклист:
01. Original Dixieland One Step (4:57)
02. Hindustan (4:52)
03. At The Jazz Band Ball (4:17)
04. Down By The Old Mill Stream (4:58)
05. Royal Garden Blues (3:46)
06. Over The Waves (2:58)
07. Bill Bailey (2:34)
08. Roses Of Picardy (2:57)
09. Ugly Chile (2:33)
10. The Blues (8:29)
11. Dippermouth Blues (3:35)
 

 
Лог создания рипа
Exact Audio Copy V1.0 beta 3 from 29. August 2011
EAC extraction logfile from 26. April 2014, 22:13
Alvin Alcorn / Sounds of New Orleans Vol. 5
Used drive : HL-DT-STDVD-RAM GH22NP20 Adapter: 0 ID: 0
Read mode : Secure
Utilize accurate stream : Yes
Defeat audio cache : Yes
Make use of C2 pointers : No
Read offset correction : 102
Overread into Lead-In and Lead-Out : No
Fill up missing offset samples with silence : Yes
Delete leading and trailing silent blocks : No
Null samples used in CRC calculations : Yes
Used interface : Native Win32 interface for Win NT & 2000
Gap handling : Appended to previous track
Used output format : User Defined Encoder
Selected bitrate : 1024 kBit/s
Quality : High
Add ID3 tag : No
Command line compressor : C:\Program Files\Exact Audio Copy\Flac\flac.exe
Additional command line options : -V -8 -T "Genre=%genre%" -T "Artist=%artist%" -T "Title=%title%" -T "Album=%albumtitle%" -T "Date=%year%" -T "Tracknumber=%tracknr%" -T "Comment=%comment%" %source%
TOC of the extracted CD
Track | Start | Length | Start sector | End sector
---------------------------------------------------------
1 | 0:00.00 | 4:57.25 | 0 | 22299
2 | 4:57.25 | 4:51.48 | 22300 | 44172
3 | 9:48.73 | 4:16.52 | 44173 | 63424
4 | 14:05.50 | 4:58.30 | 63425 | 85804
5 | 19:04.05 | 3:46.18 | 85805 | 102772
6 | 22:50.23 | 2:57.65 | 102773 | 116112
7 | 25:48.13 | 2:33.72 | 116113 | 127659
8 | 28:22.10 | 2:56.48 | 127660 | 140907
9 | 31:18.58 | 2:33.17 | 140908 | 152399
10 | 33:52.00 | 8:29.30 | 152400 | 190604
11 | 42:21.30 | 3:34.70 | 190605 | 206724
Track 1
Filename D:\music\Musicgate's rips\Alvin Alcorn - Sounds of New Orleans Vol. 5 - 1990 (Storyville STCD 6012)\01 - Original Dixieland One Step.wav
Pre-gap length 0:00:02.00
Peak level 87.2 %
Extraction speed 1.6 X
Track quality 100.0 %
Test CRC A32CB614
Copy CRC A32CB614
Track not present in AccurateRip database
Copy OK
Track 2
Filename D:\music\Musicgate's rips\Alvin Alcorn - Sounds of New Orleans Vol. 5 - 1990 (Storyville STCD 6012)\02 - Hindustan.wav
Pre-gap length 0:00:02.40
Peak level 96.3 %
Extraction speed 1.8 X
Track quality 100.0 %
Test CRC 6A5730F1
Copy CRC 6A5730F1
Track not present in AccurateRip database
Copy OK
Track 3
Filename D:\music\Musicgate's rips\Alvin Alcorn - Sounds of New Orleans Vol. 5 - 1990 (Storyville STCD 6012)\03 - At The Jazz Band Ball.wav
Pre-gap length 0:00:03.48
Peak level 98.4 %
Extraction speed 2.0 X
Track quality 100.0 %
Test CRC A15E7A03
Copy CRC A15E7A03
Track not present in AccurateRip database
Copy OK
Track 4
Filename D:\music\Musicgate's rips\Alvin Alcorn - Sounds of New Orleans Vol. 5 - 1990 (Storyville STCD 6012)\04 - Down By The Old Mill Stream.wav
Pre-gap length 0:00:02.57
Peak level 96.2 %
Extraction speed 2.2 X
Track quality 100.0 %
Test CRC CE07FA7B
Copy CRC CE07FA7B
Track not present in AccurateRip database
Copy OK
Track 5
Filename D:\music\Musicgate's rips\Alvin Alcorn - Sounds of New Orleans Vol. 5 - 1990 (Storyville STCD 6012)\05 - Royal Garden Blues.wav
Pre-gap length 0:00:02.17
Peak level 62.4 %
Extraction speed 2.2 X
Track quality 100.0 %
Test CRC 23881D4F
Copy CRC 23881D4F
Track not present in AccurateRip database
Copy OK
Track 6
Filename D:\music\Musicgate's rips\Alvin Alcorn - Sounds of New Orleans Vol. 5 - 1990 (Storyville STCD 6012)\06 - Over The Waves.wav
Pre-gap length 0:00:02.23
Peak level 91.5 %
Extraction speed 2.2 X
Track quality 100.0 %
Test CRC 9E995816
Copy CRC 9E995816
Track not present in AccurateRip database
Copy OK
Track 7
Filename D:\music\Musicgate's rips\Alvin Alcorn - Sounds of New Orleans Vol. 5 - 1990 (Storyville STCD 6012)\07 - Bill Bailey.wav
Pre-gap length 0:00:03.51
Peak level 94.1 %
Extraction speed 2.2 X
Track quality 100.0 %
Test CRC 022524A0
Copy CRC 022524A0
Track not present in AccurateRip database
Copy OK
Track 8
Filename D:\music\Musicgate's rips\Alvin Alcorn - Sounds of New Orleans Vol. 5 - 1990 (Storyville STCD 6012)\08 - Roses Of Picardy.wav
Pre-gap length 0:00:03.50
Peak level 94.9 %
Extraction speed 2.0 X
Track quality 99.9 %
Test CRC 207DFC6E
Copy CRC 207DFC6E
Track not present in AccurateRip database
Copy OK
Track 9
Filename D:\music\Musicgate's rips\Alvin Alcorn - Sounds of New Orleans Vol. 5 - 1990 (Storyville STCD 6012)\09 - Ugly Chile.wav
Pre-gap length 0:00:03.20
Peak level 83.0 %
Extraction speed 2.4 X
Track quality 100.0 %
Test CRC 10171598
Copy CRC 10171598
Track not present in AccurateRip database
Copy OK
Track 10
Filename D:\music\Musicgate's rips\Alvin Alcorn - Sounds of New Orleans Vol. 5 - 1990 (Storyville STCD 6012)\10 - The Blues.wav
Pre-gap length 0:00:01.62
Peak level 91.5 %
Extraction speed 2.9 X
Track quality 100.0 %
Test CRC 74C63D88
Copy CRC 74C63D88
Track not present in AccurateRip database
Copy OK
Track 11
Filename D:\music\Musicgate's rips\Alvin Alcorn - Sounds of New Orleans Vol. 5 - 1990 (Storyville STCD 6012)\11 - Dippermouth Blues.wav
Pre-gap length 0:00:03.00
Peak level 92.9 %
Extraction speed 2.7 X
Track quality 100.0 %
Test CRC 5CCEA3FD
Copy CRC 5CCEA3FD
Track not present in AccurateRip database
Copy OK
None of the tracks are present in the AccurateRip database
No errors occurred
End of status report
==== Log checksum 79E443F30091DBD09937052965151F325EA5F43CFEB7061E994C146217BCB308 ====
 
Содержание индексной карты (.CUE)
REM GENRE Jazz
REM DATE 1990
REM DISCID 8F0AC40B
REM COMMENT "ExactAudioCopy v1.0b3"
PERFORMER "Alvin Alcorn"
TITLE "Sounds Of New Orleans, Vol. 5"
FILE "01 - Original Dixieland One Step.wav" WAVE
TRACK 01 AUDIO
TITLE "Original Dixieland One Step"
PERFORMER "Alvin Alcorn"
INDEX 01 00:00:00
TRACK 02 AUDIO
TITLE "Hindustan"
PERFORMER "Alvin Alcorn"
INDEX 00 04:54:60
FILE "02 - Hindustan.wav" WAVE
INDEX 01 00:00:00
TRACK 03 AUDIO
TITLE "At The Jazz Band Ball"
PERFORMER "Alvin Alcorn"
INDEX 00 04:48:00
FILE "03 - At The Jazz Band Ball.wav" WAVE
INDEX 01 00:00:00
TRACK 04 AUDIO
TITLE "Down By The Old Mill Stream"
PERFORMER "Alvin Alcorn"
INDEX 00 04:13:70
FILE "04 - Down By The Old Mill Stream.wav" WAVE
INDEX 01 00:00:00
TRACK 05 AUDIO
TITLE "Royal Garden Blues"
PERFORMER "Alvin Alcorn"
INDEX 00 04:56:13
FILE "05 - Royal Garden Blues.wav" WAVE
INDEX 01 00:00:00
TRACK 06 AUDIO
TITLE "Over The Waves"
PERFORMER "Alvin Alcorn"
INDEX 00 03:43:70
FILE "06 - Over The Waves.wav" WAVE
INDEX 01 00:00:00
TRACK 07 AUDIO
TITLE "Bill Bailey"
PERFORMER "Alvin Alcorn"
INDEX 00 02:54:14
FILE "07 - Bill Bailey.wav" WAVE
INDEX 01 00:00:00
TRACK 08 AUDIO
TITLE "Roses Of Picardy"
PERFORMER "Alvin Alcorn"
INDEX 00 02:30:22
FILE "08 - Roses Of Picardy.wav" WAVE
INDEX 01 00:00:00
TRACK 09 AUDIO
TITLE "Ugly Chile"
PERFORMER "Alvin Alcorn"
INDEX 00 02:53:28
FILE "09 - Ugly Chile.wav" WAVE
INDEX 01 00:00:00
TRACK 10 AUDIO
TITLE "The Blues"
PERFORMER "Alvin Alcorn"
INDEX 00 02:31:30
FILE "10 - The Blues.wav" WAVE
INDEX 01 00:00:00
TRACK 11 AUDIO
TITLE "Dippermouth Blues"
PERFORMER "Alvin Alcorn"
INDEX 00 08:26:30
FILE "11 - Dippermouth Blues.wav" WAVE
INDEX 01 00:00:00
 
Состав
Tracks #1-5
Alvin Alcorn (trumpet), Jack Delaney (trombone), Raymond Burke (clarinet), Stan Mendelson (piano), Chink Martin (bass), Abbie Brunies (drums)
Jam Session at Joe Mares's Place, New Orleans, 1952/53
Tracks #6-9
New Orleans Jazz Babies
Alvin Alcorn (trumpet), Jack Delaney (trombone), Raymond Burke (clarinet), Stan Mendelson (piano), Sherwood Mangiapane (bass), Abbie Brunies (drums)
Recorded in New Orleans, November 11, 1953
Tracks #10, 11
Alvin Alcorn (trumpet), Jack Delaney and Bill Matthews (trombone), Raymond Burke (clarinet), Stan Mendelson (piano), Lawrence Marrero (banjo), Alcide "Slow Drag" Pavageau (bass), Abbie Brunies (drums)
Jam Session at Joe Mares's Place, New Orleans, December 8, 1952
По всем вопросам пишите личное сообщение пользователю M0p94ok.
13:54
389
Нет комментариев. Ваш будет первым!