Поиск

(Dixieland) [CD] Al Hirt & Pete Fountain - Super Jazz 1 - 1975 (1988), FLAC (tracks+.cue), lossless

(Dixieland) [CD] Al Hirt & Pete Fountain - Super Jazz 1 - 1975 (1988), FLAC (tracks+.cue), lossless
Треклист:
Al Hirt & Pete Fountain - Super Jazz 1
Жанр: Dixieland
Носитель: CD
Страна-производитель диска (релиза): США
Год издания: 1975 (1988)
Издатель (лейбл): CBS Special Products
Номер по каталогу: AK44359
Аудиокодек: FLAC (*.flac)
Тип рипа: tracks+.cue
Битрейт аудио: lossless
Продолжительность: 73:09
Источник (релизер): freeplay
Наличие сканов в содержимом раздачи: нет
Треклист:
Al Hirt and His Band
01. South Rampart Street Parade (8:44)
02. Jazz Funeral (Oh, Didn't He Ramble) (10:04)
03. Salute to Satchmo: S-H-I-N-E/Coquette/C'est Si Bon/Mack the Knife/Beale Street Blues/Hello Dolly (9:00)
Pete Fountain and His Band
04. Tie a Yellow Ribbon Round the Ole Oak Tree (3:09)
05. Mood Indigo/It's Been a Long, Long Time (7:11)
06. When the Saints Go Marching In (6:03)
07. A Closer Walk (5:14)
08. Lazy River (4:37)
Al Hirt and Pete Fountain Bands Together
09. Perdido (6:10)
10. Basin Street Blues (5:05)
11. Super Bowl Blues (7:52)
 
Лог создания рипа
Exact Audio Copy V1.3 from 2. September 2016
EAC extraction logfile from 19. August 2017, 12:27
Al Hirt & Pete Fountain / Super Jazz
Used drive : TSSTcorpCDDVDW SU-208DB Adapter: 1 ID: 0
Read mode : Secure
Utilize accurate stream : Yes
Defeat audio cache : Yes
Make use of C2 pointers : No
Read offset correction : 48
Overread into Lead-In and Lead-Out : No
Fill up missing offset samples with silence : Yes
Delete leading and trailing silent blocks : No
Null samples used in CRC calculations : Yes
Used interface : Native Win32 interface for Win NT & 2000
Gap handling : Appended to previous track
Used output format : User Defined Encoder
Selected bitrate : 128 kBit/s
Quality : High
Add ID3 tag : No
Command line compressor : C:\Program Files (x86)\Exact Audio Copy\Flac\flac.exe
Additional command line options : -8 -V -T "ARTIST=%artist%" -T "TITLE=%title%" -T "ALBUM=%albumtitle%" -T "DATE=%year%" -T "TRACKNUMBER=%tracknr%" -T "GENRE=%genre%" -T "PERFORMER=%albuminterpret%" -T "COMPOSER=%composer%" %haslyrics%--tag-from-file=LYRICS="%lyricsfile%"%haslyrics% -T "ALBUMARTIST=%albumartist%" -T "DISCNUMBER=%cdnumber%" -T "TOTALDISCS=%totalcds%" -T "TOTALTRACKS=%numtracks%" -T "COMMENT=%comment%" %source% -o %dest%
TOC of the extracted CD
Track | Start | Length | Start sector | End sector
---------------------------------------------------------
1 | 0:00.00 | 8:44.37 | 0 | 39336
2 | 8:44.37 | 10:04.15 | 39337 | 84651
3 | 18:48.52 | 9:00.03 | 84652 | 125154
4 | 27:48.55 | 3:09.32 | 125155 | 139361
5 | 30:58.12 | 7:10.60 | 139362 | 171671
6 | 38:08.72 | 6:02.73 | 171672 | 198894
7 | 44:11.70 | 5:14.35 | 198895 | 222479
8 | 49:26.30 | 4:36.72 | 222480 | 243251
9 | 54:03.27 | 6:09.73 | 243252 | 270999
10 | 60:13.25 | 5:04.42 | 271000 | 293841
11 | 65:17.67 | 7:51.50 | 293842 | 329216
Track 1
Filename C:\EAC Rips\Al Hirt & Pete Fountain - Super Jazz (1975) [FLAC] {AK44359}\01. Al Hirt and His Band - South Rampart Street Parade.wav
Pre-gap length 0:00:02.00
Peak level 100.0 %
Extraction speed 3.3 X
Track quality 100.0 %
Test CRC 92CDB89F
Copy CRC 92CDB89F
Cannot be verified as accurate (confidence 2) [24966423], AccurateRip returned [01CF4B1E] (AR v2)
Copy OK
Track 2
Filename C:\EAC Rips\Al Hirt & Pete Fountain - Super Jazz (1975) [FLAC] {AK44359}\02. Al Hirt and His Band - Jazz Funeral (Oh, Didn't He Ramble).wav
Pre-gap length 0:00:00.02
Peak level 100.0 %
Extraction speed 4.0 X
Track quality 100.0 %
Test CRC 9F782C55
Copy CRC 9F782C55
Cannot be verified as accurate (confidence 2) [E44EC497], AccurateRip returned [7742A796] (AR v2)
Copy OK
Track 3
Filename C:\EAC Rips\Al Hirt & Pete Fountain - Super Jazz (1975) [FLAC] {AK44359}\03. Al Hirt and His Band - Salute to Satchmo Medley.wav
Pre-gap length 0:00:00.02
Peak level 100.0 %
Extraction speed 4.5 X
Track quality 100.0 %
Test CRC F965211C
Copy CRC F965211C
Cannot be verified as accurate (confidence 2) [4A951156], AccurateRip returned [FC907882] (AR v2)
Copy OK
Track 4
Filename C:\EAC Rips\Al Hirt & Pete Fountain - Super Jazz (1975) [FLAC] {AK44359}\04. Pete Fountain and His Band - Tie a Yellow Ribbon Round the Ole Oak Tree.wav
Pre-gap length 0:00:02.10
Peak level 95.5 %
Extraction speed 4.2 X
Track quality 100.0 %
Test CRC 84B825ED
Copy CRC 84B825ED
Cannot be verified as accurate (confidence 2) [38B54A14], AccurateRip returned [3917B6B8] (AR v2)
Copy OK
Track 5
Filename C:\EAC Rips\Al Hirt & Pete Fountain - Super Jazz (1975) [FLAC] {AK44359}\05. Pete Fountain and His Band - Mood Indigo,It's Been a Long, Long Time.wav
Pre-gap length 0:00:00.02
Peak level 82.5 %
Extraction speed 5.0 X
Track quality 100.0 %
Test CRC C832376A
Copy CRC C832376A
Cannot be verified as accurate (confidence 2) [9CACA7A5], AccurateRip returned [EFEB0156] (AR v2)
Copy OK
Track 6
Filename C:\EAC Rips\Al Hirt & Pete Fountain - Super Jazz (1975) [FLAC] {AK44359}\06. Pete Fountain and His Band - When the Saints Go Marching In.wav
Pre-gap length 0:00:00.02
Peak level 100.0 %
Extraction speed 5.2 X
Track quality 100.0 %
Test CRC 8880F361
Copy CRC 8880F361
Cannot be verified as accurate (confidence 2) [7ED3C934], AccurateRip returned [F9572013] (AR v2)
Copy OK
Track 7
Filename C:\EAC Rips\Al Hirt & Pete Fountain - Super Jazz (1975) [FLAC] {AK44359}\07. Pete Fountain and His Band - A Closer Walk.wav
Pre-gap length 0:00:00.03
Peak level 86.2 %
Extraction speed 5.3 X
Track quality 100.0 %
Test CRC EAEBEE63
Copy CRC EAEBEE63
Cannot be verified as accurate (confidence 2) [AC7B95AA], AccurateRip returned [AB635EC6] (AR v2)
Copy OK
Track 8
Filename C:\EAC Rips\Al Hirt & Pete Fountain - Super Jazz (1975) [FLAC] {AK44359}\08. Pete Fountain and His Band - Lazy River.wav
Pre-gap length 0:00:00.03
Peak level 96.4 %
Extraction speed 5.5 X
Track quality 100.0 %
Test CRC 07E0594E
Copy CRC 07E0594E
Cannot be verified as accurate (confidence 2) [AF812069], AccurateRip returned [65076C5D] (AR v2)
Copy OK
Track 9
Filename C:\EAC Rips\Al Hirt & Pete Fountain - Super Jazz (1975) [FLAC] {AK44359}\09. Al Hirt and and Pete Fountain Bands Together - Perdido.wav
Pre-gap length 0:00:00.02
Peak level 92.0 %
Extraction speed 5.8 X
Track quality 100.0 %
Test CRC F4525A2B
Copy CRC F4525A2B
Cannot be verified as accurate (confidence 2) [283C4156], AccurateRip returned [A4B7A9B0] (AR v2)
Copy OK
Track 10
Filename C:\EAC Rips\Al Hirt & Pete Fountain - Super Jazz (1975) [FLAC] {AK44359}\10. Al Hirt and and Pete Fountain Bands Together - Basin Street Blues.wav
Pre-gap length 0:00:00.03
Peak level 91.8 %
Extraction speed 6.0 X
Track quality 100.0 %
Test CRC 8D1DF179
Copy CRC 8D1DF179
Cannot be verified as accurate (confidence 2) [2A31815F], AccurateRip returned [E1BC2B0B] (AR v2)
Copy OK
Track 11
Filename C:\EAC Rips\Al Hirt & Pete Fountain - Super Jazz (1975) [FLAC] {AK44359}\11. Al Hirt and and Pete Fountain Bands Together - Super Bowl Blues.wav
Pre-gap length 0:00:00.02
Peak level 100.0 %
Extraction speed 6.4 X
Track quality 100.0 %
Test CRC 2E21E1CE
Copy CRC 2E21E1CE
Cannot be verified as accurate (confidence 2) [1E31C9B9], AccurateRip returned [1BD309BC] (AR v2)
Copy OK
No tracks could be verified as accurate
You may have a different pressing from the one(s) in the database
No errors occurred
End of status report
---- CUETools DB Plugin V2.1.6
[CTDB TOCID: 81YOJQBGAvVG6LszRIhQnHykXbY-] found
Submit result: 81YOJQBGAvVG6LszRIhQnHykXbY- has been confirmed
Track | CTDB Status
1 | (6/6) Accurately ripped
2 | (6/6) Accurately ripped
3 | (6/6) Accurately ripped
4 | (6/6) Accurately ripped
5 | (6/6) Accurately ripped
6 | (6/6) Accurately ripped
7 | (6/6) Accurately ripped
8 | (6/6) Accurately ripped
9 | (6/6) Accurately ripped
10 | (6/6) Accurately ripped
11 | (5/6) Accurately ripped
==== Log checksum 45FAA669FCE64CA39575F2C0919C721960AFDBFA48DE7356A72162A247037AC1 ====
 
Содержание индексной карты (.CUE)
REM GENRE Jazz
REM DATE 1975
REM DISCID 9A11250B
REM COMMENT "ExactAudioCopy v1.3"
PERFORMER "Al Hirt & Pete Fountain"
TITLE "Super Jazz 1"
FILE "01 - Al Hirt - South Rampart Street Parade.wav" WAVE
TRACK 01 AUDIO
TITLE "South Rampart Street Parade"
PERFORMER "Al Hirt"
INDEX 01 00:00:00
TRACK 02 AUDIO
TITLE "Jazz Funeral (Oh, Didn't He Ramble)"
PERFORMER "Al Hirt"
INDEX 00 08:44:35
FILE "02 - Al Hirt - Jazz Funeral (Oh, Didn't He Ramble).wav" WAVE
INDEX 01 00:00:00
TRACK 03 AUDIO
TITLE "Salute to Satchmo Medley"
PERFORMER "Al Hirt"
INDEX 00 10:04:13
FILE "03 - Al Hirt - Salute to Satchmo Medley.wav" WAVE
INDEX 01 00:00:00
TRACK 04 AUDIO
TITLE "Tie a Yellow Ribbon Round the Ole Oak Tree"
PERFORMER "Pete Fountain"
INDEX 00 08:57:68
FILE "04 - Pete Fountain - Tie a Yellow Ribbon Round the Ole Oak Tree.wav" WAVE
INDEX 01 00:00:00
TRACK 05 AUDIO
TITLE "Mood Indigo/It's Been a Long, Long Time"
PERFORMER "Pete Fountain"
INDEX 00 03:09:30
FILE "05 - Pete Fountain - Mood Indigo,It's Been a Long, Long Time.wav" WAVE
INDEX 01 00:00:00
TRACK 06 AUDIO
TITLE "When the Saints Go Marching In"
PERFORMER "Pete Fountain"
INDEX 00 07:10:58
FILE "06 - Pete Fountain - When the Saints Go Marching In.wav" WAVE
INDEX 01 00:00:00
TRACK 07 AUDIO
TITLE "A Closer Walk"
PERFORMER "Pete Fountain"
INDEX 00 06:02:70
FILE "07 - Pete Fountain - A Closer Walk.wav" WAVE
INDEX 01 00:00:00
TRACK 08 AUDIO
TITLE "Lazy River"
PERFORMER "Pete Fountain"
INDEX 00 05:14:32
FILE "08 - Pete Fountain - Lazy River.wav" WAVE
INDEX 01 00:00:00
TRACK 09 AUDIO
TITLE "Perdido"
PERFORMER "Al Hirt & Pete Fountain"
INDEX 00 04:36:70
FILE "09 - Al Hirt & Pete Fountain - Perdido.wav" WAVE
INDEX 01 00:00:00
TRACK 10 AUDIO
TITLE "Basin Street Blues"
PERFORMER "Al Hirt & Pete Fountain"
INDEX 00 06:09:70
FILE "10 - Al Hirt & Pete Fountain - Basin Street Blues.wav" WAVE
INDEX 01 00:00:00
TRACK 11 AUDIO
TITLE "Super Bowl Blues"
PERFORMER "Al Hirt & Pete Fountain"
INDEX 00 05:04:40
FILE "11 - Al Hirt & Pete Fountain - Super Bowl Blues.wav" WAVE
INDEX 01 00:00:00
 
Отчет CUETools
[CUETools log; Date: 25.09.2017 21:29:54; Version: 2.1.5]
[CTDB TOCID: 81YOJQBGAvVG6LszRIhQnHykXbY-] found.
Track | CTDB Status
1 | (7/7) Accurately ripped
2 | (7/7) Accurately ripped
3 | (7/7) Accurately ripped
4 | (7/7) Accurately ripped
5 | (7/7) Accurately ripped
6 | (7/7) Accurately ripped
7 | (7/7) Accurately ripped
8 | (7/7) Accurately ripped
9 | (7/7) Accurately ripped
10 | (7/7) Accurately ripped
11 | (6/7) Accurately ripped
[AccurateRip ID: 002054d0-010fd33c-9a11250b] found.
Track [ CRC | V2 ] Status
01 [a8eabbdf|24966423] (0+0/2) No match
02 [31a21fde|e44ec497] (0+0/2) No match
03 [738960c2|4a951156] (0+0/2) No match
04 [3bf29619|38b54a14] (0+0/2) No match
05 [1167f12d|9caca7a5] (0+0/2) No match
06 [50969c99|7ed3c934] (0+0/2) No match
07 [f2616e63|ac7b95aa] (0+0/2) No match
08 [8f0090ea|af812069] (0+0/2) No match
09 [230851fd|283c4156] (0+0/2) No match
10 [688cac8d|2a31815f] (0+0/2) No match
11 [4977374a|1e31c9b9] (0+0/2) No match
Offsetted by -997:
01 [874e28fa] (0/2) No match (V2 was not tested)
02 [ef7a23ac] (0/2) No match (V2 was not tested)
03 [439d1d12] (0/2) No match (V2 was not tested)
04 [4c27badd] (0/2) No match (V2 was not tested)
05 [66d149b5] (0/2) No match (V2 was not tested)
06 [e0d68490] (0/2) No match (V2 was not tested)
07 [0854adf9] (0/2) No match (V2 was not tested)
08 [4ce1ddd0] (0/2) No match (V2 was not tested)
09 [a2ca2864] (0/2) No match (V2 was not tested)
10 [14805e50] (0/2) No match (V2 was not tested)
11 [fd8909cd] (0/2) No match (V2 was not tested)
Track Peak [ CRC32 ] [W/O NULL] [ LOG ]
-- 100,0 [1A826971] [1F16941F]
01 100,0 [92CDB89F] [DAF4EE4E] CRC32
02 100,0 [9F782C55] [5F0ED6BC] CRC32
03 100,0 [F965211C] [8F36422B] CRC32
04 95,5 [84B825ED] [51D23211] CRC32
05 82,5 [C832376A] [833295FC] CRC32
06 100,0 [8880F361] [836C97C0] CRC32
07 86,2 [EAEBEE63] [F45A3B6D] CRC32
08 96,4 [07E0594E] [7052FF45] CRC32
09 92,0 [F4525A2B] [FF268EB2] CRC32
10 91,8 [8D1DF179] [2A6BC71B] CRC32
11 100,0 [2E21E1CE] [23242E9E] CRC32
 
AllMusic Review by Scott Yanow
This double LP features both the Al Hirt and Pete Fountain bands performing live during halftime at the 1976 Super Bowl. Trumpeter Hirt, heard on one of his best recordings in 15 years, leads a sextet featuring longtime clarinetist Pee Wee Spitelera on two lengthy numbers, plus a four-song "Salute to Satchmo" medley. Clarinetist Fountain (at the front of an octet that also stars tenor great Eddie Miller) romps on six swinging numbers, and the two bands jam together on "Perdido," "Basin Street Blues," and "Super Bowl Blues." Dixieland fans will want to pick up this often-overlooked gem.
22:10
672
Нет комментариев. Ваш будет первым!