Поиск

(Cuban/Latin/Jazz) Ibrahim Ferrer - Mis Tiempos - 2004, FLAC (tracks+.cue), lossless

(Cuban/Latin/Jazz) Ibrahim Ferrer - Mis Tiempos - 2004, FLAC (tracks+.cue), lossless
Треклист:
Ibrahim Ferrer - Mis Tiempos
Жанр: Cuban/Latin/Jazz
Год выпуска диска: 2004
Производитель диска: UK
Аудио кодек: FLAC
Тип рипа: tracks+.cue
Битрейт аудио: lossless
Продолжительность: 1:19:06
Трэклист:
01 - En Que Parte de Cuba Nació el Son
02 - Compositor Confundido
03 - El Platanal de Bartolo
04 - Mañana Me Voy a Sibanicu
05 - El Son de la Santiaguera
06 - Una Fuerza Inmensa
07 - Un Son Para el Guayabero
08 - Mi Tonada Montuna
09 - Santa Cecilia
10 - Estoy Seco y Me Quiero Mojar
11 - La Chica del Granizado
12 - Ahora No Puedo
13 - Asi Es la Vida Compay
14 - Viene de la Tierra Caliente
15 - Toda Via Me Queda Voz
16 - Esto Se Baila Y Se Toca
17 - Cucuruchito De Coco
18 - Monte Adentro
19 - El Botellero
20 - Rossana
Доп. информация:
 
Лог EAC
Exact Audio Copy V0.99 prebeta 5 from 4. May 2009
EAC extraction logfile from 17. May 2009, 12:56
Ibrahim Ferrer / Mis Tiempos
Used drive : _NEC DVD_RW ND-3520A Adapter: 1 ID: 0
Read mode : Secure
Utilize accurate stream : Yes
Defeat audio cache : Yes
Make use of C2 pointers : No
Read offset correction : 48
Overread into Lead-In and Lead-Out : No
Fill up missing offset samples with silence : Yes
Delete leading and trailing silent blocks : No
Null samples used in CRC calculations : Yes
Used interface : Native Win32 interface for Win NT & 2000
Gap handling : Appended to previous track
Used output format : User Defined Encoder
Selected bitrate : 768 kBit/s
Quality : High
Add ID3 tag : No
Command line compressor : C:\Program Files\Exact Audio Copy\Flac\flac.exe
Additional command line options : -V -8 -T "artist=%a" -T "title=%t" -T "album=%g" -T "date=%y" -T "tracknumber=%n" -T "genre=%m" %s
TOC of the extracted CD
Track | Start | Length | Start sector | End sector
---------------------------------------------------------
1 | 0:00.00 | 4:30.34 | 0 | 20283
2 | 4:30.34 | 4:32.74 | 20284 | 40757
3 | 9:03.33 | 3:29.19 | 40758 | 56451
4 | 12:32.52 | 3:26.35 | 56452 | 71936
5 | 15:59.12 | 5:04.47 | 71937 | 94783
6 | 21:03.59 | 3:01.32 | 94784 | 108390
7 | 24:05.16 | 4:35.54 | 108391 | 129069
8 | 28:40.70 | 2:58.63 | 129070 | 142482
9 | 31:39.58 | 3:25.66 | 142483 | 157923
10 | 35:05.49 | 4:00.70 | 157924 | 175993
11 | 39:06.44 | 3:51.56 | 175994 | 193374
12 | 42:58.25 | 3:44.55 | 193375 | 210229
13 | 46:43.05 | 5:50.24 | 210230 | 236503
14 | 52:33.29 | 3:34.06 | 236504 | 252559
15 | 56:07.35 | 5:24.06 | 252560 | 276865
16 | 61:31.41 | 4:11.29 | 276866 | 295719
17 | 65:42.70 | 4:34.22 | 295720 | 316291
18 | 70:17.17 | 2:33.17 | 316292 | 327783
19 | 72:50.34 | 3:00.22 | 327784 | 341305
20 | 75:50.56 | 3:15.52 | 341306 | 355982
Track 1
Filename Ibrahim Ferrer - Mis Tiempos - 01 - En Que Parte de Cuba Nació el Son.wav
Pre-gap length 0:00:02.00
Peak level 100.0 %
Track quality 100.0 %
Test CRC 781595E8
Copy CRC 781595E8
Cannot be verified as accurate (confidence 1) [78840DFA], AccurateRip returned [F1291532]
Copy OK
Track 2
Filename Ibrahim Ferrer - Mis Tiempos - 02 - Compositor Confundido.wav
Pre-gap length 0:00:02.00
Peak level 100.0 %
Track quality 100.0 %
Test CRC 5EA37B5A
Copy CRC 5EA37B5A
Cannot be verified as accurate (confidence 1) [A47E95DD], AccurateRip returned [74D6254B]
Copy OK
Track 3
Filename Ibrahim Ferrer - Mis Tiempos - 03 - El Platanal de Bartolo.wav
Pre-gap length 0:00:02.00
Peak level 86.0 %
Track quality 100.0 %
Test CRC E15800C8
Copy CRC E15800C8
Accurately ripped (confidence 1) [54A7F341]
Copy OK
Track 4
Filename Ibrahim Ferrer - Mis Tiempos - 04 - Mañana Me Voy a Sibanicu.wav
Pre-gap length 0:00:02.00
Peak level 79.4 %
Track quality 100.0 %
Test CRC 1F2A8DA1
Copy CRC 1F2A8DA1
Accurately ripped (confidence 1) [F9C7D9A6]
Copy OK
Track 5
Filename Ibrahim Ferrer - Mis Tiempos - 05 - El Son de la Santiaguera.wav
Pre-gap length 0:00:02.00
Peak level 100.0 %
Track quality 100.0 %
Test CRC E69CBAE4
Copy CRC E69CBAE4
Accurately ripped (confidence 1) [055F15F2]
Copy OK
Track 6
Filename Ibrahim Ferrer - Mis Tiempos - 06 - Una Fuerza Inmensa.wav
Pre-gap length 0:00:02.00
Peak level 100.0 %
Track quality 100.0 %
Test CRC 5EB3C2F8
Copy CRC 5EB3C2F8
Accurately ripped (confidence 1) [71ED61E2]
Copy OK
Track 7
Filename Ibrahim Ferrer - Mis Tiempos - 07 - Un Son Para el Guayabero.wav
Pre-gap length 0:00:02.00
Peak level 100.0 %
Track quality 100.0 %
Test CRC 524613C6
Copy CRC 524613C6
Accurately ripped (confidence 1) [4167045E]
Copy OK
Track 8
Filename Ibrahim Ferrer - Mis Tiempos - 08 - Mi Tonada Montuna.wav
Pre-gap length 0:00:02.00
Peak level 100.0 %
Track quality 99.9 %
Test CRC 6156BCBC
Copy CRC 6156BCBC
Accurately ripped (confidence 1) [4EB5DAB0]
Copy OK
Track 9
Filename Ibrahim Ferrer - Mis Tiempos - 09 - Santa Cecilia.wav
Pre-gap length 0:00:02.00
Peak level 100.0 %
Track quality 99.9 %
Test CRC B81F8961
Copy CRC B81F8961
Accurately ripped (confidence 1) [2120D847]
Copy OK
Track 10
Filename Ibrahim Ferrer - Mis Tiempos - 10 - Estoy Seco y Me Quiero Mojar.wav
Pre-gap length 0:00:02.00
Peak level 100.0 %
Track quality 100.0 %
Test CRC 67C1F799
Copy CRC 67C1F799
Accurately ripped (confidence 1) [C7E953F2]
Copy OK
Track 11
Filename Ibrahim Ferrer - Mis Tiempos - 11 - La Chica del Granizado.wav
Pre-gap length 0:00:02.00
Peak level 88.2 %
Track quality 99.6 %
Test CRC E76231C3
Copy CRC E76231C3
Accurately ripped (confidence 1) [B6FE45B3]
Copy OK
Track 12
Filename Ibrahim Ferrer - Mis Tiempos - 12 - Ahora No Puedo.wav
Pre-gap length 0:00:02.00
Peak level 100.0 %
Track quality 100.0 %
Test CRC 12E51FE5
Copy CRC 12E51FE5
Cannot be verified as accurate (confidence 1) [7ED97D19], AccurateRip returned [0D933893]
Copy OK
Track 13
Filename Ibrahim Ferrer - Mis Tiempos - 13 - Asi Es la Vida Compay.wav
Pre-gap length 0:00:02.00
Peak level 100.0 %
Track quality 99.9 %
Test CRC B038171F
Copy CRC B038171F
Accurately ripped (confidence 1) [344A74A2]
Copy OK
Track 14
Filename Ibrahim Ferrer - Mis Tiempos - 14 - Viene de la Tierra Caliente.wav
Pre-gap length 0:00:02.00
Peak level 99.4 %
Track quality 100.0 %
Test CRC CA1FF9DA
Copy CRC CA1FF9DA
Track not present in AccurateRip database
Copy OK
Track 15
Filename Ibrahim Ferrer - Mis Tiempos - 15 - Toda Via Me Queda Voz.wav
Pre-gap length 0:00:02.00
Peak level 100.0 %
Track quality 99.9 %
Test CRC FBC9E86C
Copy CRC FBC9E86C
Accurately ripped (confidence 1) [4BE60961]
Copy OK
Track 16
Filename Ibrahim Ferrer - Mis Tiempos - 16 - Esto Se Baila y Se Toca.wav
Pre-gap length 0:00:02.00
Peak level 100.0 %
Track quality 99.9 %
Test CRC 1A6CB35D
Copy CRC 1A6CB35D
Cannot be verified as accurate (confidence 1) [A809EEB8], AccurateRip returned [79493CE1]
Copy OK
Track 17
Filename Ibrahim Ferrer - Mis Tiempos - 17 - Cucuruchito de Coco.wav
Pre-gap length 0:00:02.00
Peak level 100.0 %
Track quality 99.3 %
Test CRC 156A65EA
Copy CRC 156A65EA
Cannot be verified as accurate (confidence 1) [04381932], AccurateRip returned [7DCFCA1F]
Copy OK
Track 18
Filename Ibrahim Ferrer - Mis Tiempos - 18 - Monte Adentro.wav
Pre-gap length 0:00:02.00
Peak level 88.4 %
Track quality 99.8 %
Test CRC A31DA7C6
Copy CRC A31DA7C6
Cannot be verified as accurate (confidence 1) [ADD99FDD], AccurateRip returned [B91F93B9]
Copy OK
Track 19
Filename Ibrahim Ferrer - Mis Tiempos - 19 - El Botellero.wav
Pre-gap length 0:00:02.00
Peak level 96.8 %
Track quality 99.9 %
Test CRC FC31579D
Copy CRC FC31579D
Track not present in AccurateRip database
Copy OK
Track 20
Filename Ibrahim Ferrer - Mis Tiempos - 20 - Rossana.wav
Pre-gap length 0:00:02.00
Peak level 100.0 %
Track quality 99.3 %
Test CRC 5425F63C
Copy CRC 5425F63C
Track not present in AccurateRip database
Copy OK
11 track(s) accurately ripped
6 track(s) could not be verified as accurate
3 track(s) not present in the AccurateRip database
Some tracks could not be verified as accurate
There were errors
End of status report
 
Лог Audiochecker
Started at: понедельник, 25. 05. 2009. - 20:47.06
20 files found
01 -===- S:\Ibrahim Ferrer - 2004 - Mis Tiempos (FLAC)\Ibrahim Ferrer - Mis Tiempos - 01 - En Que Parte de Cuba Nacio el Son.flac
Extracted successfully
Conclusion: This track looks like CDDA with probability 100%
Tempfile successfully deleted.
02 -===- S:\Ibrahim Ferrer - 2004 - Mis Tiempos (FLAC)\Ibrahim Ferrer - Mis Tiempos - 02 - Compositor Confundido.flac
Extracted successfully
Conclusion: This track looks like CDDA with probability 100%
Tempfile successfully deleted.
03 -===- S:\Ibrahim Ferrer - 2004 - Mis Tiempos (FLAC)\Ibrahim Ferrer - Mis Tiempos - 03 - El Platanal de Bartolo.flac
Extracted successfully
Conclusion: This track looks like CDDA with probability 100%
Tempfile successfully deleted.
04 -===- S:\Ibrahim Ferrer - 2004 - Mis Tiempos (FLAC)\Ibrahim Ferrer - Mis Tiempos - 04 - Manana Me Voy a Sibanicu.flac
Extracted successfully
Conclusion: This track looks like CDDA with probability 100%
Tempfile successfully deleted.
05 -===- S:\Ibrahim Ferrer - 2004 - Mis Tiempos (FLAC)\Ibrahim Ferrer - Mis Tiempos - 05 - El Son de la Santiaguera.flac
Extracted successfully
Conclusion: This track looks like CDDA with probability 100%
Tempfile successfully deleted.
06 -===- S:\Ibrahim Ferrer - 2004 - Mis Tiempos (FLAC)\Ibrahim Ferrer - Mis Tiempos - 06 - Una Fuerza Inmensa.flac
Extracted successfully
Conclusion: This track looks like CDDA with probability 100%
Tempfile successfully deleted.
07 -===- S:\Ibrahim Ferrer - 2004 - Mis Tiempos (FLAC)\Ibrahim Ferrer - Mis Tiempos - 07 - Un Son Para el Guayabero.flac
Extracted successfully
Conclusion: This track looks like CDDA with probability 100%
Tempfile successfully deleted.
08 -===- S:\Ibrahim Ferrer - 2004 - Mis Tiempos (FLAC)\Ibrahim Ferrer - Mis Tiempos - 08 - Mi Tonada Montuna.flac
Extracted successfully
Conclusion: This track looks like CDDA with probability 100%
Tempfile successfully deleted.
09 -===- S:\Ibrahim Ferrer - 2004 - Mis Tiempos (FLAC)\Ibrahim Ferrer - Mis Tiempos - 09 - Santa Cecilia.flac
Extracted successfully
Conclusion: This track looks like CDDA with probability 100%
Tempfile successfully deleted.
10 -===- S:\Ibrahim Ferrer - 2004 - Mis Tiempos (FLAC)\Ibrahim Ferrer - Mis Tiempos - 10 - Estoy Seco y Me Quiero Mojar.flac
Extracted successfully
Conclusion: This track looks like CDDA with probability 100%
Tempfile successfully deleted.
11 -===- S:\Ibrahim Ferrer - 2004 - Mis Tiempos (FLAC)\Ibrahim Ferrer - Mis Tiempos - 11 - La Chica del Granizado.flac
Extracted successfully
Conclusion: This track looks like CDDA with probability 100%
Tempfile successfully deleted.
12 -===- S:\Ibrahim Ferrer - 2004 - Mis Tiempos (FLAC)\Ibrahim Ferrer - Mis Tiempos - 12 - Ahora No Puedo.flac
Extracted successfully
Conclusion: This track looks like CDDA with probability 100%
Tempfile successfully deleted.
13 -===- S:\Ibrahim Ferrer - 2004 - Mis Tiempos (FLAC)\Ibrahim Ferrer - Mis Tiempos - 13 - Asi Es la Vida Compay.flac
Extracted successfully
Conclusion: This track looks like CDDA with probability 100%
Tempfile successfully deleted.
14 -===- S:\Ibrahim Ferrer - 2004 - Mis Tiempos (FLAC)\Ibrahim Ferrer - Mis Tiempos - 14 - Viene de la Tierra Caliente.flac
Extracted successfully
Conclusion: This track looks like CDDA with probability 100%
Tempfile successfully deleted.
15 -===- S:\Ibrahim Ferrer - 2004 - Mis Tiempos (FLAC)\Ibrahim Ferrer - Mis Tiempos - 15 - Toda Via Me Queda Voz.flac
Extracted successfully
Conclusion: This track looks like CDDA with probability 100%
Tempfile successfully deleted.
16 -===- S:\Ibrahim Ferrer - 2004 - Mis Tiempos (FLAC)\Ibrahim Ferrer - Mis Tiempos - 16 - Esto Se Baila Y Se Toca.flac
Extracted successfully
Conclusion: This track looks like CDDA with probability 100%
Tempfile successfully deleted.
17 -===- S:\Ibrahim Ferrer - 2004 - Mis Tiempos (FLAC)\Ibrahim Ferrer - Mis Tiempos - 17 - Cucuruchito De Coco.flac
Extracted successfully
Conclusion: This track looks like CDDA with probability 100%
Tempfile successfully deleted.
18 -===- S:\Ibrahim Ferrer - 2004 - Mis Tiempos (FLAC)\Ibrahim Ferrer - Mis Tiempos - 18 - Monte Adentro.flac
Extracted successfully
Conclusion: This track looks like CDDA with probability 100%
Tempfile successfully deleted.
19 -===- S:\Ibrahim Ferrer - 2004 - Mis Tiempos (FLAC)\Ibrahim Ferrer - Mis Tiempos - 19 - El Botellero.flac
Extracted successfully
Conclusion: This track looks like CDDA with probability 100%
Tempfile successfully deleted.
20 -===- S:\Ibrahim Ferrer - 2004 - Mis Tiempos (FLAC)\Ibrahim Ferrer - Mis Tiempos - 20 - Rossana.flac
Extracted successfully
Conclusion: This track looks like CDDA with probability 100%
Tempfile successfully deleted.
Finished at: понедельник, 25. 05. 2009. - 21:23.41 (operation time: 0:36.35)
 
CUE
REM GENRE Latin
REM DATE 2004
REM DISCID 26128A14
REM COMMENT "ExactAudioCopy v0.99pb5"
PERFORMER "Ibrahim Ferrer"
TITLE "Mis Tiempos"
FILE "Ibrahim Ferrer - Mis Tiempos - 01 - En Que Parte de Cuba Nació el Son.wav" WAVE
TRACK 01 AUDIO
TITLE "En Que Parte de Cuba Nació el Son"
PERFORMER "Ibrahim Ferrer"
INDEX 01 00:00:00
TRACK 02 AUDIO
TITLE "Compositor Confundido"
PERFORMER "Ibrahim Ferrer"
INDEX 00 04:28:34
FILE "Ibrahim Ferrer - Mis Tiempos - 02 - Compositor Confundido.wav" WAVE
INDEX 01 00:00:00
TRACK 03 AUDIO
TITLE "El Platanal de Bartolo"
PERFORMER "Ibrahim Ferrer"
INDEX 00 04:30:74
FILE "Ibrahim Ferrer - Mis Tiempos - 03 - El Platanal de Bartolo.wav" WAVE
INDEX 01 00:00:00
TRACK 04 AUDIO
TITLE "Mañana Me Voy a Sibanicu"
PERFORMER "Ibrahim Ferrer"
INDEX 00 03:27:19
FILE "Ibrahim Ferrer - Mis Tiempos - 04 - Mañana Me Voy a Sibanicu.wav" WAVE
INDEX 01 00:00:00
TRACK 05 AUDIO
TITLE "El Son de la Santiaguera"
PERFORMER "Ibrahim Ferrer"
INDEX 00 03:24:35
FILE "Ibrahim Ferrer - Mis Tiempos - 05 - El Son de la Santiaguera.wav" WAVE
INDEX 01 00:00:00
TRACK 06 AUDIO
TITLE "Una Fuerza Inmensa"
PERFORMER "Ibrahim Ferrer"
INDEX 00 05:02:47
FILE "Ibrahim Ferrer - Mis Tiempos - 06 - Una Fuerza Inmensa.wav" WAVE
INDEX 01 00:00:00
TRACK 07 AUDIO
TITLE "Un Son Para el Guayabero"
PERFORMER "Ibrahim Ferrer"
INDEX 00 02:59:32
FILE "Ibrahim Ferrer - Mis Tiempos - 07 - Un Son Para el Guayabero.wav" WAVE
INDEX 01 00:00:00
TRACK 08 AUDIO
TITLE "Mi Tonada Montuna"
PERFORMER "Ibrahim Ferrer"
INDEX 00 04:33:54
FILE "Ibrahim Ferrer - Mis Tiempos - 08 - Mi Tonada Montuna.wav" WAVE
INDEX 01 00:00:00
TRACK 09 AUDIO
TITLE "Santa Cecilia"
PERFORMER "Ibrahim Ferrer"
INDEX 00 02:56:63
FILE "Ibrahim Ferrer - Mis Tiempos - 09 - Santa Cecilia.wav" WAVE
INDEX 01 00:00:00
TRACK 10 AUDIO
TITLE "Estoy Seco y Me Quiero Mojar"
PERFORMER "Ibrahim Ferrer"
INDEX 00 03:23:66
FILE "Ibrahim Ferrer - Mis Tiempos - 10 - Estoy Seco y Me Quiero Mojar.wav" WAVE
INDEX 01 00:00:00
TRACK 11 AUDIO
TITLE "La Chica del Granizado"
PERFORMER "Ibrahim Ferrer"
INDEX 00 03:58:70
FILE "Ibrahim Ferrer - Mis Tiempos - 11 - La Chica del Granizado.wav" WAVE
INDEX 01 00:00:00
TRACK 12 AUDIO
TITLE "Ahora No Puedo"
PERFORMER "Ibrahim Ferrer"
INDEX 00 03:49:56
FILE "Ibrahim Ferrer - Mis Tiempos - 12 - Ahora No Puedo.wav" WAVE
INDEX 01 00:00:00
TRACK 13 AUDIO
TITLE "Asi Es la Vida Compay"
PERFORMER "Ibrahim Ferrer"
INDEX 00 03:42:55
FILE "Ibrahim Ferrer - Mis Tiempos - 13 - Asi Es la Vida Compay.wav" WAVE
INDEX 01 00:00:00
TRACK 14 AUDIO
TITLE "Viene de la Tierra Caliente"
PERFORMER "Ibrahim Ferrer"
INDEX 00 05:48:24
FILE "Ibrahim Ferrer - Mis Tiempos - 14 - Viene de la Tierra Caliente.wav" WAVE
INDEX 01 00:00:00
TRACK 15 AUDIO
TITLE "Toda Via Me Queda Voz"
PERFORMER "Ibrahim Ferrer"
INDEX 00 03:32:06
FILE "Ibrahim Ferrer - Mis Tiempos - 15 - Toda Via Me Queda Voz.wav" WAVE
INDEX 01 00:00:00
TRACK 16 AUDIO
TITLE "Esto Se Baila y Se Toca"
PERFORMER "Ibrahim Ferrer"
INDEX 00 05:22:06
FILE "Ibrahim Ferrer - Mis Tiempos - 16 - Esto Se Baila y Se Toca.wav" WAVE
INDEX 01 00:00:00
TRACK 17 AUDIO
TITLE "Cucuruchito de Coco"
PERFORMER "Ibrahim Ferrer"
INDEX 00 04:09:29
FILE "Ibrahim Ferrer - Mis Tiempos - 17 - Cucuruchito de Coco.wav" WAVE
INDEX 01 00:00:00
TRACK 18 AUDIO
TITLE "Monte Adentro"
PERFORMER "Ibrahim Ferrer"
INDEX 00 04:32:22
FILE "Ibrahim Ferrer - Mis Tiempos - 18 - Monte Adentro.wav" WAVE
INDEX 01 00:00:00
TRACK 19 AUDIO
TITLE "El Botellero"
PERFORMER "Ibrahim Ferrer"
INDEX 00 02:31:17
FILE "Ibrahim Ferrer - Mis Tiempos - 19 - El Botellero.wav" WAVE
INDEX 01 00:00:00
TRACK 20 AUDIO
TITLE "Rossana"
PERFORMER "Ibrahim Ferrer"
INDEX 00 02:58:22
FILE "Ibrahim Ferrer - Mis Tiempos - 20 - Rossana.wav" WAVE
INDEX 01 00:00:00
Просьба поддерживать раздачу, чем дольше, тем лучше. Из-за нехватки дискового места через недели три—месяц буду удалять все FLACи.
Download available for power users only.
06:25
164
Нет комментариев. Ваш будет первым!